img image001 image001 image001 image001 image001 image001 image001 image001 image001 image001 image001 image001 image001 image001 image001 image001

Planets Sun Sun Sun
Статистика раздачи
Автор: Снежана | Размер: 17.64 ГБ | Добавлен: 09 июн 2018
Раздают: 12    Качают: 1
Скачать торрент
Скачать торрент
Описание торрента

СообщениеДобавлено: 09 июн 2018 

Ликвидация (1-14 серии из 14)

Перевод: Не требуется, cубтитры: отсутствуют
Формат: WEB-DLRip-AVC, MKV, H.264, AC3
Страна: Россия
Режиссер: Сергей Урсуляк
Жанр: детектив, криминал, триллер, драма, военный, история
Всего серий: 14
Продолжительность: 14 x ~ 00:46:00
Год выпуска: 2007

В ролях: Владимир Машков, Михаил Пореченков, Владимир Меньшов, Сергей Маковецкий, Светлана Крючкова, Юрий Лахин, Александр Сирин, Константин Лавроненко, Константин Желдин, Полина Агуреева, Лика Нифонтова, Ксения Раппопорт, Диана Малая, Виктор Смирнов, Фёдор Добронравов, Борис Каморзин, Александр Голубев, Виктор Супрун, Андрей Бронников, Сергей Угрюмов, Алексей Кирющенко, Александр Семчев, Максим Дрозд, Николай Спиридонов, Олег Басилашвили, Юрий Авшаров, Олег Кассин, Валерий Трошин, Беата Маковская, Сергей Рубеко, Виктор Соловьёв, Геннадий Чулков, Пётр Меркурьев, Владимир Юматов, Станислав Стрелков, Алексей Жиров, Александр Матросов, Сергей Неудачин, Евгений Куршинский, Виктор Тереля, Роман Крюков, Станислав Лесной, Вячеслав Молоков, Олег Семисынов, Виктор Лысенко, Александр Ковалёв, Олег Кулаев, Константин Балакирев, Тимофей Трибунцев, Артём Осипов, Кирилл Кяро, Александр Чернявский (II), Александр Карпиловский, Наталья Рожкова, Богдан Бенюк, Григорий Данцигер, Владимир Михайловский, Александр Карамнов, Святослав Чирков, Наталья Карпунина, Виктор Пасечник, Павел Ворожцов, Игорь Ларин (II), Альберт Каспарянц, Всеволод Кабанов, Андрей Щенников, Валентин Козачков, Андрей Шибаршин, Юрий Мазихин, Валерий Легин

Описание: Лето 1946 года. Маршал Жуков в опале. Он отправлен в ссылку в Одессу, где нет житья от воров, убийц и вымогателей, а дерзкая безжалостная банда «Степные волки» повадилась грабить военные склады. И всем заправляет неуловимый немецкий шпион «Академик», которого никто не знает в лицо. И только начальник угрозыска Давид Гоцман и Георгий Жуков могут спасти город. Они задумывают сложную и опасную операцию…
«Место встречи – Одесса»
Рейтинг и доп. информация:


Видео: 960x576 (5:3), 25 fps, AVC MPEG-4 (x264), ~ 3500 kbps avg, 0.253 bit/pixel
Аудио: 48 kHz, AC3 Dolby Digital, 3/2 (L,C,R,l,r) + LFE ch, ~448.00 kbps avg
Общее
Уникальный идентификатор : 243428929135720939663669708513994680518 (0xB722B4D651DD366D83F864D3E09128C6)
Полное имя : C:\Ликвидация_(2007)\001_Ликвидация.mkv
Формат : Matroska
Версия формата : Version 4 / Version 2
Размер файла : 1,27 Гбайт
Продолжительность : 46 м. 5 с.
Общий поток : 3951 Кбит/сек
Дата кодирования : UTC 2018-06-08 05:47:24
Программа кодирования : mkvmerge v6.9.1 ('Blue Panther') 32bit built on Apr 18 2014 18:15:44
Библиотека кодирования : libebml v1.3.0 + libmatroska v1.4.1
Attachments : poster.png

Видео
Идентификатор : 1
Формат : AVC
Формат/Информация : Advanced Video Codec
Профиль формата :
Настройки формата : CABAC / 9 Ref Frames
Параметр CABAC формата : Да
Параметр RefFrames формата : 9 кадров
Идентификатор кодека : V_MPEG4/ISO/AVC
Продолжительность : 46 м. 5 с.
Битрейт : 3500 Кбит/сек
Ширина : 960 пикселей
Высота : 576 пикселей
Соотношение сторон : 5:3
Режим частоты кадров : Постоянный
Частота кадров : 25,000 кадров/сек
Цветовое пространство : YUV
Субдискретизация насыщенности : 4:2:0
Битовая глубина : 8 бит
Тип развёртки : Прогрессивная
Бит/(Пиксели*Кадры) : 0.253
Размер потока : 1,10 Гбайт (87%)
Библиотека кодирования : x264 core 155 r2901M 7d0ff22
Настройки программы : cabac=1 / ref=9 / deblock=1:-3:-3 / analyse=0x3:0x133 / me=umh / subme=10 / psy=1 / psy_rd=1.05:0.25 / mixed_ref=1 / me_range=24 / chroma_me=1 / trellis=2 / 8x8dct=1 / cqm=0 / deadzone=6,6 / fast_pskip=0 / chroma_qp_offset=-4 / threads=9 / lookahead_threads=1 / sliced_threads=0 / nr=0 / decimate=0 / interlaced=0 / bluray_compat=0 / constrained_intra=0 / bframes=8 / b_pyramid=2 / b_adapt=2 / b_bias=0 / direct=3 / weightb=1 / open_gop=0 / weightp=2 / keyint=250 / keyint_min=25 / scenecut=40 / intra_refresh=0 / rc_lookahead=60 / rc=2pass / mbtree=1 / bitrate=3500 / ratetol=1.0 / qcomp=0.80 / qpmin=3 / qpmax=69 / qpstep=4 / cplxblur=20.0 / qblur=0.5 / ip_ratio=1.10 / aq=2:1.00
Default : Да
Forced : Нет

Аудио
Идентификатор : 2
Формат : AC-3
Формат/Информация : Audio Coding 3
Идентификатор кодека : A_AC3
Продолжительность : 46 м. 5 с.
Вид битрейта : Постоянный
Битрейт : 448 Кбит/сек
Каналы : 6 каналов
Расположение каналов : Front: L C R, Side: L R, LFE
Частота : 48,0 КГц
Частота кадров : 31,250 кадров/сек (1536 SPF)
Битовая глубина : 16 бит
Метод сжатия : С потерями
Размер потока : 148 Мбайт (11%)
Язык : Russian
ServiceKind/String : Complete Main
Default : Да
Forced : Нет












   Похожие торренты   Торрент   Размер 
В этой теме нет новых непрочитанных сообщений. Ликвидация (1-14 серии из 14) (Сергей Урсуляк) [2007, детектив, криминал, триллер, драма, военный, история, WEB-DL 720p]

3 | 0

24.23 ГБ

В этой теме нет новых непрочитанных сообщений. Страсти по Чапаю (1-12 серии из 12) (Сергей Щербин) [2012, драма, история, военный, HDTVRip]

17 | 0

7.47 ГБ

В этой теме нет новых непрочитанных сообщений. Гурзуф (1-8 серии из 8) (Дмитрий Константинов) [2018, детектив, драма, криминал, история, WEB-DLRip]

66 | 4

4.69 ГБ

В этой теме нет новых непрочитанных сообщений. Гурзуф (1-4 серии из 8) (Дмитрий Константинов) [2018, детектив, драма, криминал, история, WEB-DLRip]

1 | 11

2.35 ГБ

В этой теме нет новых непрочитанных сообщений. Гурзуф (1-2 серии из 8) (Дмитрий Константинов) [2018, детектив, драма, криминал, история, WEB-DLRip]

14 | 0

1.18 ГБ

В этой теме нет новых непрочитанных сообщений. Диверсант / Диверсант 2: Конец войны (1-2 сезон 1-14 серии из 14) (Андрей Малюков, Игорь Зайцев) [2004 - 2007, боевик, военный, детектив, драма, история, приключения, HDTVRip]

24 | 1

9.57 ГБ

В этой теме нет новых непрочитанных сообщений. Диверсант / Диверсант 2: Конец войны (1-2 сезон 1-14 серии из 14) (Андрей Малюков, Игорь Зайцев) [2004 - 2007, боевик, военный, детектив, драма, история, приключения, HDTVRip 720p]

3 | 1

17.71 ГБ




Вы не можете начинать темы
Вы не можете отвечать на сообщения
Вы не можете редактировать свои сообщения
Вы не можете удалять свои сообщения
Вы не можете добавлять вложения

Перейти:  
 Вход
ppkBB3cker v.2 © 2008-2014 @ PPK
[ Time : 0.050s | 18 Queries | GZIP : Off ]

cron