img image001 image001 image001 image001 image001 image001 image001 image001 image001 image001 image001 image001 image001 image001 image001 image001

Planets Sun Sun Sun
Статистика раздачи
Автор: Снежана | Размер: 6.01 ГБ | Добавлен: 28 май 2018
Раздают: 4    Качают: 4
Скачать торрент
Скачать торрент
Описание торрента

СообщениеДобавлено: 28 май 2018 

Гибель империи (1-10 серии из 10)

Перевод: Не требуется, cубтитры: отсутствуют
Формат: DVDRip, MKV, AVC, AC3
Страна: Россия
Режиссер: Владимир Хотиненко
Жанр: исторический детектив, приключения
Всего серий: 10
Продолжительность: 10 x ~ 00:51:00
Год выпуска: 2005
В ролях: Сергей Маковецкий, Чулпан Хаматова, Александр Балуев, Мария Миронова, Андрей Краско, Марат Башаров, Виктор Вержбицкий, Дмитрий Певцов, Александр Баширов, Владислав Галкин, Федор Бондарчук и др.
Описание:
Россия, 1914-1918 годы. История появления и становления российской контрразведки, действующий в тяжелый исторический период, когда империю сотрясали Первая мировая война, а затем Великая Октябрьская Социалистическая революция. Фильм рассказывает о борьбе охранных структур Российской империи с германским шпионажем во время Первой мировой войны. К Нестеровскому, Стрельникову и Штольцу присоединяется бывший строевой офицер, ныне – офицер ОГЕНКВАР ГУГШ (Отдел генерал-квартирмейстера Главного управления Генерального штаба), контрразведчик Костин...



Видео: 712x432 (16:10), 25 fps, AVC ~1382 kbps avg, 0.180 bit/pixel
Аудио: 48 kHz, АС3, 2 ch, (Front: L R) ~256.00 kbps avg

Общее
Полное имя : I:\Российские\Гибель империи\Гибель империи.10 серий\Гибель империи.10 серий.torrent
Размер файла : 31,2 Кбайт

Общее
Уникальный идентификатор : 186759384103987303078530840370958329317 (0x8C808C8CD83A659EA85950C3D24065E5)
Полное имя : I:\Российские\Гибель империи\Гибель империи.10 серий\Гибель империи.2005_1 серия.mkv
Формат : Matroska
Версия формата : Version 4 / Version 2
Размер файла : 613 Мбайт
Продолжительность : 51 м.
Общий поток : 1671 Кбит/сек
Название фильма : Release for Topmost
Дата кодирования : UTC 2016-06-30 13:08:19
Программа кодирования : mkvmerge v6.2.0 ('Promised Land') built on Apr 28 2013 12:22:01
Библиотека кодирования : libebml v1.3.0 + libmatroska v1.4.0
Attachment : Yes

Видео
Идентификатор : 1
Формат : AVC
Формат/Информация : Advanced Video Codec
Профиль формата :
Параметр CABAC формата : Да
Параметр ReFrames формата : 1 кадр
Идентификатор кодека : V_MPEG4/ISO/AVC
Продолжительность : 51 м.
Битрейт : 1382 Кбит/сек
Ширина : 712 пикселей
Высота : 432 пикселя
Соотношение сторон : 16:10
Режим частоты кадров : Постоянный
Частота кадров : 25,000 кадров/сек
Цветовое пространство : YUV
Субдискретизация насыщенности : 4:2:0
Битовая глубина : 8 бит
Тип развёртки : Прогрессивная
Бит/(Пиксели*Кадры) : 0.180
Размер потока : 507 Мбайт (83%)
Заголовок : Гибель империи.2005 (Release for Topmost)
Язык : Russian
Default : Да
Forced : Нет

Аудио
Идентификатор : 2
Формат : AC-3
Формат/Информация : Audio Coding 3
Расширение режима : CM (complete main)
Параметр Endianness формата : Big
Идентификатор кодека : A_AC3
Продолжительность : 51 м.
Вид битрейта : Постоянный
Битрейт : 256 Кбит/сек
Каналы : 2 канала
Расположение каналов : Front: L R
Частота : 48,0 КГц
Битовая глубина : 16 бит
Метод сжатия : С потерями
Размер потока : 94,0 Мбайт (15%)
Заголовок : AC3, 2 ch, 256 kbps
Язык : Russian
Default : Да
Forced : Нет








   Похожие торренты   Торрент   Размер 
В этой теме нет новых непрочитанных сообщений. Гибель Империи [01-10 из 10] (2005) DVDRip-AVC

257 | 12

5.46 ГБ

В этой теме нет новых непрочитанных сообщений. Неуловимые (1-8 серии из 8) (Владимир Виноградов) [2017, комедия, приключения, детектив, история, HDTVRip]

104 | 5

4.63 ГБ

В этой теме нет новых непрочитанных сообщений. Неуловимые (1-4 серии из 8) (Владимир Виноградов) [2017, комедия, приключения, детектив, история, HDTVRip-AVC]

1 | 3

3.02 ГБ

В этой теме нет новых непрочитанных сообщений. Неуловимые (1-8 серии из 8) (Владимир Виноградов) [2017, комедия, приключения, детектив, история, WEB-DL 1080p]

15 | 3

14.6 ГБ

В этой теме нет новых непрочитанных сообщений. Неуловимые (1-6 серии из 8) (Владимир Виноградов) [2017, комедия, приключения, детектив, история, SATRip]

30 | 10

3.79 ГБ

В этой теме нет новых непрочитанных сообщений. Неуловимые (1-8 серии из 8) (Владимир Виноградов) [2017, комедия, приключения, детектив, история, WEB-DLRip]

76 | 13

5.09 ГБ

В этой теме нет новых непрочитанных сообщений. Неуловимые (1-8 серии из 8) (Владимир Виноградов) [2017, комедия, приключения, детектив, история, HDTVRip-AVC]

39 | 2

5.98 ГБ




Вы не можете начинать темы
Вы не можете отвечать на сообщения
Вы не можете редактировать свои сообщения
Вы не можете удалять свои сообщения
Вы не можете добавлять вложения

Перейти:  
 Вход
ppkBB3cker v.2 © 2008-2014 @ PPK
[ Time : 0.036s | 18 Queries | GZIP : Off ]

cron