img image001 image001 image001 image001 image001 image001 image001 image001 image001 image001 image001 image001 image001 image001 image001 image001

Planets Sun Sun Sun
Статистика раздачи
Автор: Снежана | Размер: 23.54 ГБ | Добавлен: 16 май 2018
Раздают: 2    Качают: 5
Скачать торрент
Скачать торрент
Описание торрента

СообщениеДобавлено: 16 май 2018 

Траст / Trust

Перевод: Профессиональный (многоголосый, закадровый) IdeaFilm
Субтитры: отсутствуют
Формат: WEBRip, MKV, h.264, AC3
Страна: США
Режиссер: Дэнни Бойл, Доун Шадфорт, Джонатан ван Тюллекен
Жанр: Драма, криминал
Всего серий: 10
Продолжительность: 8х ~00:60:00
Год выпуска: 2018

В ролях: Брендан Фрейзер, Харрис Дикинсон, Майкл Эспер, Дональд Сазерленд, Хилари Суэнк, Андреа Арканджели, Лука Маринелли, Сайлас Карсон, Франческо Колелла, Ханна Нью, Анна Чэнселлор, Аманда Дрю, Софи Уинклман, Дэвид Агранов, Лаура Беллини, Сара Беллини

Описание: В центре внимания сериала оказывается сюжет, основанный на реальном происшествии, имевшем место в семьдесят третьем году прошлого века. История переносит зрителей в Рим. Именно здесь пропал внук одного влиятельного человека Жан Поля Гетти, который является владельцем многочисленных нефтяных скважин и заводов по переработке нефти. Главный герой оказывается в ситуации, когда необходимо спасать своего близкого человека, поэтому Гетти уже готовит солидную сумму для выкупа, которую требуют похитители. Правда, вскоре становится понятно, что все эти сборы - всего лишь фикция и иллюзия. Деду и отцу абсолютно плевать на ребенка. Одна лишь мать, которая сходит с ума от пропажи своего дитя, пытается сделать хоть что-то, чтобы спасти сына из цепких и жестоких лап похитителей, которые не дают покоя семье ни на секунду.

Рейтинг на:

Видео: 1916x956 (2,004:1), 23,976 fps, AVC (х264), , ~6890 kbps avg, 0.157 bit/pixel
Аудио #1 Rus: :48 kHz, AC3 Dolby Digital, 3/2 (L,C,R,l,r) + LFE ch, ~384 kbps
Аудио #1 Eng: :48 kHz, AC3 Dolby Digital, 3/2 (L,C,R,l,r) + LFE ch, ~384 kbps

Внимание, присутствует реклама!


Внимание! Раздача ведётся путём добавления новых серий; при каждом добавлении создаётся новый торрент. Чтобы начать докачку новой серии, пользователям необходимо сделать следующее:
(1) остановить скачивание,
(2) удалить старый торрент у себя из клиента (старые серии удалять не надо),
(3) скачать новый торрент и запустить его у себя в клиенте вместо старого, при этом указать клиенту путь в старую папку куда и должно происходить скачивание новых серий.

Ваш клиент при этом должен произвести хеширование (проверку) старой папки (если не производит сам - помогите ему сделать это), и будет докачивать только те серии которых у вас ещё нет. Старые серии при этом не удаляются, а продолжают раздаваться!

Eсли вы уже удалили старые серии, то предотвратить повторную закачку старых серий можно, отжав галочку в соответствующих местах при запуске нового торрента. По возможности, желательно не удалять старые серии как можно дольше, чтобы релизёр не столько продолжал раздавать старые серии, а смог сконцентрироваться на новых.



Общее
Уникальный идентификатор : 218399700825489590899069306290091124167 (0xA44E409B175276B7A455EB8D3B80E5C7)
Полное имя : D:\IDEAFILM\Trust.S01.WEBRip.1080p\Trust.S01E01.WEBRip.1080p-IdeaFilm.mkv
Формат : Matroska
Версия формата : Version 4 / Version 2
Размер файла : 3,40 Гбайт
Продолжительность : 1 ч. 3 м.
Общий поток : 7656 Кбит/сек
Дата кодирования : UTC 2018-04-01 21:13:47
Программа кодирования : mkvmerge v12.0.0 ('Trust / Lust') 64bit
Библиотека кодирования : libebml v1.3.4 + libmatroska v1.4.5

Видео
Идентификатор : 1
Формат : AVC
Формат/Информация : Advanced Video Codec
Профиль формата :
Настройки формата : CABAC / 3 Ref Frames
Параметр CABAC формата : Да
Параметр RefFrames формата : 3 кадра
Идентификатор кодека : V_MPEG4/ISO/AVC
Продолжительность : 1 ч. 3 м.
Битрейт : 6890 Кбит/сек
Ширина : 1916 пикселей
Высота : 956 пикселей
Соотношение сторон : 2,004
Режим частоты кадров : Постоянный
Частота кадров : 23,976 (24000/1001) кадра/сек
Стандарт вещания : NTSC
Цветовое пространство : YUV
Субдискретизация насыщенности : 4:2:0
Битовая глубина : 8 бит
Тип развёртки : Прогрессивная
Бит/(Пиксели*Кадры) : 0.157
Размер потока : 3,06 Гбайт (90%)
Язык : English
Default : Да
Forced : Нет
Цветовой диапазон : Limited
Основные цвета : BT.709
Характеристики трансфера : BT.709
Коэффициенты матрицы : BT.709

Аудио #1
Идентификатор : 2
Формат : AC-3
Формат/Информация : Audio Coding 3
Идентификатор кодека : A_AC3
Продолжительность : 1 ч. 3 м.
Вид битрейта : Постоянный
Битрейт : 384 Кбит/сек
Каналы : 6 каналов
Расположение каналов : Front: L C R, Side: L R, LFE
Частота : 48,0 КГц
Частота кадров : 31,250 кадров/сек (1536 SPF)
Битовая глубина : 16 бит
Метод сжатия : С потерями
Размер потока : 175 Мбайт (5%)
Заголовок : IdeaFilm
Язык : Russian
ServiceKind/String : Complete Main
Default : Да
Forced : Нет

Аудио #2
Идентификатор : 3
Формат : AC-3
Формат/Информация : Audio Coding 3
Идентификатор кодека : A_AC3
Продолжительность : 1 ч. 2 м.
Битрейт : 384 Кбит/сек
Каналы : 6 каналов
Частота : 48,0 КГц
Частота кадров : 31,250 кадров/сек (1536 SPF)
Метод сжатия : С потерями
Размер потока : 173 Мбайт (5%)
Язык : English
Default : Нет
Forced : Нет







   Похожие торренты   Торрент   Размер 
В этой теме нет новых непрочитанных сообщений. Траст, 1 сезон 1-8 серии из 10 / Trust [IdeaFilm] (Дэнни Бойл, Доун Шадфорт, Джонатан ван Тюллекен) [2018, Драма, криминал, WEBRip 720p, P]

2 | 0

16.03 ГБ

В этой теме нет новых непрочитанных сообщений. Траст, 1 сезон 1-8 серии из 10 / Trust [IdeaFilm] (Дэнни Бойл, Доун Шадфорт, Джонатан ван Тюллекен) [2017, Драма, криминал, WEBRip, P]

0 | 4

5.82 ГБ

В этой теме нет новых непрочитанных сообщений. База Куантико, 3 сезон 1 серии из 22 / Quantico [IdeaFilm] (Джошуа Сафран) [2018, триллер, драма, криминал, детектив, WEBRip 1080p, P]

7 | 4

2.34 ГБ

В этой теме нет новых непрочитанных сообщений. База Куантико, 3 сезон 1 серии из 22 / Quantico [IdeaFilm] (Джошуа Сафран) [2018, триллер, драма, криминал, детектив, WEBRip, P]

5 | 3

591.56 МБ

В этой теме нет новых непрочитанных сообщений. База Куантико, 3 сезон 1 серии из 22 / Quantico [IdeaFilm] (Джошуа Сафран) [2018, триллер, драма, криминал, детектив, WEBRip 720p, P]

7 | 5

1.6 ГБ

В этой теме нет новых непрочитанных сообщений. Рэй Донован, 5 сезон 1-8 серии из 12 / Ray Donovan [IdeaFilm] (Майкл Аппендаль, Джон Дал) [2017, криминал, драма, WEBRip 1080p, Р]

7 | 8

34.9 ГБ

В этой теме нет новых непрочитанных сообщений. Рэй Донован, 5 сезон 1-2 серии из 12 / Ray Donovan [IdeaFilm] (Майкл Аппендаль, Джон Дал) [2017, криминал, драма, WEBRip 1080p, Р]

11 | 14

8.86 ГБ




Вы не можете начинать темы
Вы не можете отвечать на сообщения
Вы не можете редактировать свои сообщения
Вы не можете удалять свои сообщения
Вы не можете добавлять вложения

Перейти:  
 Вход
ppkBB3cker v.2 © 2008-2014 @ PPK
[ Time : 0.041s | 16 Queries | GZIP : Off ]

cron