img image001 image001 image001 image001 image001 image001 image001 image001 image001 image001 image001 image001 image001 image001 image001 image001

Planets Sun Sun Sun
Статистика раздачи
Автор: Снежана | Размер: 13.82 ГБ | Добавлен: 16 май 2018
Раздают: 6    Качают: 1
Скачать торрент
Скачать торрент
Описание торрента

СообщениеДобавлено: 16 май 2018 

Убивая Еву / Killing Eve


Перевод: Профессиональный (многоголосый, закадровый) IdeaFilm
Субтитры: отсутствуют
Формат: WEB-DLRip 1080p, MKV, H.264, AC3
Страна: США
Режиссер: Джон Ист, Дэймон Томас, Гарри Брэдбир
Жанр: Триллер
Всего серий: 9
Продолжительность: 6 х ~ 00:45:00
Год выпуска: 2018

В ролях: Сандра О, Джоди Комер, Фиона Шоу, Ким Бодния, Оуэн МакДоннел, Кирби Хауэлл-Баптисте, Шон Делани, Даррен Бойд, Хелена Холмс, Дэвид Агранов

Описание: Триллер о наемной убийце с русскими корнями и мелодичным псевдонимом Вилланель. В ходе очередного задания эта безжалостная особа сталкивается с достойным противником — скромной сотрудницей спецслужб, которая отчаянно хочет изменить свою скучную жизнь.



Видео: 1920x1080 (16:9), 23,976 fps, AVC (х264), , ~6930 Мbps avg, 0.139 bit/pixel
Аудио #1 Rus: 48 kHz, AC3 Dolby Digital, 3/2 (L,C,R,l,r) + LFE ch, ~384 kbps
Аудио #2 Eng: 48 kHz, AC3 Dolby Digital, 3/2 (L,C,R,l,r) + LFE ch, ~384 kbps

Внимание, присутствует реклама!
Раздача ведется путем добавления новых серий.

Добавлена 6 серия.


Внимание! Раздача ведётся путём добавления новых серий; при каждом добавлении создаётся новый торрент. Чтобы начать докачку новой серии, пользователям необходимо сделать следующее:
(1) остановить скачивание,
(2) удалить старый торрент у себя из клиента (старые серии удалять не надо),
(3) скачать новый торрент и запустить его у себя в клиенте вместо старого, при этом указать клиенту путь в старую папку куда и должно происходить скачивание новых серий.

Ваш клиент при этом должен произвести хеширование (проверку) старой папки (если не производит сам - помогите ему сделать это), и будет докачивать только те серии которых у вас ещё нет. Старые серии при этом не удаляются, а продолжают раздаваться!

Eсли вы уже удалили старые серии, то предотвратить повторную закачку старых серий можно, отжав галочку в соответствующих местах при запуске нового торрента. По возможности, желательно не удалять старые серии как можно дольше, чтобы релизёр не столько продолжал раздавать старые серии, а смог сконцентрироваться на новых.



Video
ID : 1
Format : AVC
Format/Info : Advanced Video Codec
Format profile :
Format settings, CABAC : Yes
Format settings, RefFrames : 4 frames
Codec ID : V_MPEG4/ISO/AVC
Duration : 44 min 21 s
Bit rate : 6 930 kb/s
Width : 1 920 pixels
Height : 1 080 pixels
Display aspect ratio : 16:9
Frame rate mode : Constant
Frame rate : 23.976 (24000/1001) FPS
Standard : NTSC
Color space : YUV
Chroma subsampling : 4:2:0
Bit depth : 8 bits
Scan type : Progressive
Bits/(Pixel*Frame) : 0.139
Stream size : 2.15 GiB (90%)
Language : English
Default : Yes
Forced : No
Color range : Limited
Color primaries : BT.709
Transfer characteristics : BT.709
Matrix coefficients : BT.709

Audio #1
ID : 2
Format : AC-3
Format/Info : Audio Coding 3
Format settings, Endianness : Big
Codec ID : A_AC3
Duration : 44 min 21 s
Bit rate mode : Constant
Bit rate : 384 kb/s
Channel(s) : 6 channels
Channel positions : Front: L C R, Side: L R, LFE
Sampling rate : 48.0 kHz
Frame rate : 31.250 FPS (1536 SPF)
Bit depth : 16 bits
Compression mode : Lossy
Stream size : 122 MiB (5%)
Title : IDEAFILM
Language : Russian
Service kind : Complete Main
Default : Yes
Forced : No

Audio #2
ID : 3
Format : AC-3
Format/Info : Audio Coding 3
Format settings, Endianness : Big
Codec ID : A_AC3
Duration : 44 min 21 s
Bit rate mode : Constant
Bit rate : 384 kb/s
Channel(s) : 6 channels
Channel positions : Front: L C R, Side: L R, LFE
Sampling rate : 48.0 kHz
Frame rate : 31.250 FPS (1536 SPF)
Bit depth : 16 bits
Compression mode : Lossy
Stream size : 122 MiB (5%)
Language : English
Service kind : Complete Main
Default : No
Forced : No







   Похожие торренты   Торрент   Размер 
В этой теме нет новых непрочитанных сообщений. Убивая Еву, 1 сезон 1-6 серии из 9 / Killing Eve [IdeaFilm] (Джон Ист, Дэймон Томас, Гарри Брэдбир) [2018, триллер, WEB-DLRip, Р]

0 | 0

3.87 ГБ

В этой теме нет новых непрочитанных сообщений. Убивая Еву, 1 сезон 1-6 серии из 9 / Killing Eve [IdeaFilm] (Джон Ист, Дэймон Томас, Гарри Брэдбир) [2018, триллер, WEB-DLRip 720p, Р]

6 | 11

8.49 ГБ

В этой теме нет новых непрочитанных сообщений. Ривьера, 1 сезон 1-5 серия из 10 / Riviera [SnowFox] (Ханс Херботс, Филипп Кадельбах, Дэймон Томас) [2017, триллер, HDTV 1080p, L2]

2 | 2

4.21 ГБ

В этой теме нет новых непрочитанных сообщений. Из-под пера Диккенса / Диккенсовщина, 1 сезон 1-15 серии из 20 / Dickensian [BaibaKo] (Гарри Брэдбир, Марк Брозел, Филиппа Лангдэйл) [2015-2016, драма, WEB-DLRip, P]

192 | 7

5.77 ГБ

В этой теме нет новых непрочитанных сообщений. Из-под пера Диккенса / Диккенсиада, 1 сезон 1-15 серии / Dickensian [NewStudio] (Гарри Брэдбир, Марк Брозел, Филиппа Лангдэйл) [2015-2016, драма, WEB-DLRip-AVC, P]

18 | 7

7.23 ГБ

В этой теме нет новых непрочитанных сообщений. Из-под пера Диккенса / Диккенсовщина, 1 сезон 1-11 серии из 20 / Dickensian [BaibaKo] (Гарри Брэдбир, Марк Брозел, Филиппа Лангдэйл) [2015-2016, драма, WEB-DLRip, P]

46 | 15

4.24 ГБ

В этой теме нет новых непрочитанных сообщений. Из-под пера Диккенса / Диккенсовщина, 1 сезон 1-11 серии / Dickensian [NewStudio] (Гарри Брэдбир, Марк Брозел, Филиппа Лангдэйл) [2015-2016, драма, WEB-DLRip-AVC, P]

12 | 36

5.31 ГБ




Вы не можете начинать темы
Вы не можете отвечать на сообщения
Вы не можете редактировать свои сообщения
Вы не можете удалять свои сообщения
Вы не можете добавлять вложения

Перейти:  
 Вход
ppkBB3cker v.2 © 2008-2014 @ PPK
[ Time : 0.037s | 15 Queries | GZIP : Off ]

cron