img image001 image001 image001 image001 image001 image001 image001 image001 image001 image001 image001 image001 image001 image001 image001 image001

Planets Sun Sun Sun
Статистика раздачи
Автор: Снежана | Размер: 9.75 ГБ | Добавлен: 13 апр 2018
Раздают: 10    Качают: 6
Скачать торрент
Скачать торрент
Описание торрента

СообщениеДобавлено: 13 апр 2018 

Частица вселенной (1-7 серии из 7)

Перевод: Не требуется, cубтитры: отсутствуют
Формат: HDTVRip 720p, MKV, H.264, AC3
Страна: Россия
Режиссер: Алена Званцова
Жанр: драма
Всего серий: 7
Продолжительность: 1 х ~ 01:19:00, 2-7 x ~ 00:50:00
Год выпуска: 2017

В ролях: Алексей Макаров, Сергей Пускепалис, Владимир Яглыч, Виктория Исакова, Анна Михалкова, Яна Гладких, Александра Бортич, Сергей Походаев, Алексей Агранович, Яна Сексте, Казимир Лиске, Андрей Смирнов, Александр Резалин, Тимур Бадалбейли, Евгений Гришковец, Сергей Шеховцов, Елена Смирнова (IV), Микаэл Джанибекян, Сергей Юшкевич, Алёна Лаптева

Описание: Это история о настоящих Героях. Которые живут здесь и сейчас. И на которых хочется быть похожими. Это история о настоящих Женщинах, которые умеют ждать. О людях, которые работают на космос в ЦУПе и Звёздном, на Байконуре и в институте космической медицины. Это кино о Подвиге, настоящей мужской дружбе и большой любви. О том, чего нам в этой жизни так не хватает...

Рейтинг и доп. информация:


Видео: 1280x720 (16:9), 25 fps, AVC MPEG-4 (x264), ~ 3500 kbps avg, 0.152 bit/pixel
Аудио: 48 kHz, АС3, 2/0 (L,R), ~192.00 kbps avg
Внимание! Раздача ведётся путём добавления новых серий. При каждом добавлении создаётся новый торрент.
Чтобы начать докачку новой серии, пользователям необходимо сделать следующее:
1. Остановить скачивание.
2. Удалить старый торрент у себя из клиента (старые серии удалять не надо).
3. Скачать новый торрент и запустить его у себя в клиенте вместо старого, при этом указать клиенту путь в старую папку куда и должно происходить скачивание новых серий. Ваш клиент при этом должен произвести хеширование (проверку) старой папки и будет докачивать только те серии, которых у вас ещё нет. Старые серии при этом не удаляются, а продолжают раздаваться! Eсли вы уже удалили старые серии, то предотвратить повторную закачку старых серий можно, отжав галочку в соответствующих местах при запуске нового торрента.


Общее
Уникальный идентификатор : 230560951266113964530925255735347965430 (0xAD746C8B9728E92CA1B95BDC2856EDF6)
Полное имя : C:\Chastica vselennoj.HDTVRip.(720p).\01.Chastica vselennoj.HDTVRip.(720p).mkv
Формат : Matroska
Версия формата : Version 2
Размер файла : 2,02 Гбайт
Продолжительность : 1 ч. 18 м.
Общий поток : 3694 Кбит/сек
Дата кодирования : UTC 2018-04-10 06:04:14
Программа кодирования : mkvmerge v6.1.0 ('Old Devil') built on Mar 4 2013 09:10:42
Библиотека кодирования : libebml v1.3.0 + libmatroska v1.4.0

Видео
Идентификатор : 1
Формат : AVC
Формат/Информация : Advanced Video Codec
Профиль формата :
Настройки формата : CABAC / 9 Ref Frames
Параметр CABAC формата : Да
Параметр RefFrames формата : 9 кадров
Идентификатор кодека : V_MPEG4/ISO/AVC
Продолжительность : 1 ч. 18 м.
Битрейт : 3500 Кбит/сек
Ширина : 1280 пикселей
Высота : 720 пикселей
Соотношение сторон : 16:9
Режим частоты кадров : Постоянный
Частота кадров : 25,000 кадров/сек
Цветовое пространство : YUV
Субдискретизация насыщенности : 4:2:0
Битовая глубина : 8 бит
Тип развёртки : Прогрессивная
Бит/(Пиксели*Кадры) : 0.152
Размер потока : 1,88 Гбайт (93%)
Библиотека кодирования : x264 core 130 r2273 b3065e6
Настройки программы : cabac=1 / ref=9 / deblock=1:-2:-1 / analyse=0x3:0x133 / me=umh / subme=9 / psy=1 / psy_rd=1.00:0.15 / mixed_ref=1 / me_range=32 / chroma_me=1 / trellis=2 / 8x8dct=1 / cqm=0 / deadzone=21,11 / fast_pskip=0 / chroma_qp_offset=-3 / threads=18 / lookahead_threads=3 / sliced_threads=0 / nr=0 / decimate=0 / interlaced=0 / bluray_compat=0 / constrained_intra=0 / bframes=9 / b_pyramid=2 / b_adapt=2 / b_bias=0 / direct=3 / weightb=1 / open_gop=0 / weightp=2 / keyint=250 / keyint_min=25 / scenecut=40 / intra_refresh=0 / rc=2pass / mbtree=0 / bitrate=3500 / ratetol=1.0 / qcomp=0.60 / qpmin=0 / qpmax=69 / qpstep=4 / cplxblur=20.0 / qblur=0.5 / ip_ratio=1.40 / pb_ratio=1.30 / aq=2:1.00
Default : Да
Forced : Нет
Цветовой диапазон : Limited
Основные цвета : BT.709
Характеристики трансфера : BT.709
Коэффициенты матрицы : BT.709

Аудио
Идентификатор : 2
Формат : AC-3
Формат/Информация : Audio Coding 3
Идентификатор кодека : A_AC3
Продолжительность : 1 ч. 18 м.
Вид битрейта : Постоянный
Битрейт : 192 Кбит/сек
Каналы : 2 канала
Расположение каналов : Front: L R
Частота : 48,0 КГц
Частота кадров : 31,250 кадров/сек (1536 SPF)
Битовая глубина : 16 бит
Метод сжатия : С потерями
Размер потока : 108 Мбайт (5%)
ServiceKind/String : Complete Main
Default : Да
Forced : Нет








   Похожие торренты   Торрент   Размер 
В этой теме нет новых непрочитанных сообщений. Частица вселенной (1- серии из 8) (Алена Званцова) [2017, драма, HDTVRip 720p]

13 | 0

2.02 ГБ

В этой теме нет новых непрочитанных сообщений. Частица вселенной (1-3 серии из 7) (Алена Званцова) [2017, драма, HDTVRip 720p]

0 | 0

4.64 ГБ

В этой теме нет новых непрочитанных сообщений. Частица вселенной (1- серии из 7) (Алена Званцова) [2017, драма, WEB-DL 720p]

2 | 2

1.79 ГБ

В этой теме нет новых непрочитанных сообщений. Частица вселенной (1-3 серии из 7) (Алена Званцова) [2017, драма, WEB-DL 720p]

2 | 0

4.2 ГБ

В этой теме нет новых непрочитанных сообщений. Частица вселенной (1-2 серии из 7) (Алена Званцова) [2017, драма, WEB-DL 720p]

0 | 3

2.97 ГБ

В этой теме нет новых непрочитанных сообщений. Частица вселенной (1-5 серии из 7) (Алена Званцова) [2017, драма, WEB-DL 720p]

1 | 0

6.51 ГБ

В этой теме нет новых непрочитанных сообщений. Частица вселенной (1-3 серии из 7) (Алена Званцова) [2017, драма, SATRip-AVC]

3 | 0

2.26 ГБ




Вы не можете начинать темы
Вы не можете отвечать на сообщения
Вы не можете редактировать свои сообщения
Вы не можете удалять свои сообщения
Вы не можете добавлять вложения

Перейти:  
 Вход
ppkBB3cker v.2 © 2008-2014 @ PPK
[ Time : 0.035s | 15 Queries | GZIP : Off ]

cron