img image001 image001 image001 image001 image001 image001 image001 image001 image001 image001 image001 image001 image001 image001 image001 image001

Planets Sun Sun Sun
Статистика раздачи
Автор: Снежана | Размер: 5.05 ГБ | Добавлен: 13 апр 2018
Раздают: 4    Качают: 1
Скачать торрент
Скачать торрент
Описание торрента

СообщениеДобавлено: 13 апр 2018 

Ма-моч-ки!.. / Ой, ма-моч-ки! (2 сезон 1-8 серия из 8)

Перевод: Не требуется, cубтитры: отсутствуют
Формат: WEB-DLRip-AVC, MKV, H.264, AC3
Страна: Россия, Беларусь
Режиссер: Иван Павлов
Жанр: мелодрама
Всего серий: 8
Продолжительность: 8 х ~ 00:50:00
Год выпуска: 2017

В ролях: Вера Полякова, Александр Макогон, Светлана Брюханова, Игорь Сигов, Михаил Зуй, Светлана Суховей, Елена Шабад, Ксения Караева, Елизавета Фалей, Яна Касперович, Светлана Зеленковская, Ксения Малахвейчук, Богдан Карпушин, Татьяна Новик (II), Игорь Шугалеев, Анна-Мария Червякова, Анна Анисенко, Александр Жданович, Зинаида Пасютина, Виктор Зайковский, Ирина Григерева, Ольга Дедюля, Надежда Анципович, Заза Чантурия, Ольга Голубева, Георгий Чантурия, Яна Ходанович, Анастасия Задорина, Александр Ильин (IV), Андрей Кривецкий, Руслан Чернецкий, Марина Поддубная, Александр Островский, Сергей Чекерес, Александр Павлов (IV), Вячеслав Дунаев, Алла Долгая, Мария Возба, Александр Гиренок, Елизавета Батталова, Наталья Цуба, Инна Слоневская, Валерия Ефименко, Андрей Королевич, Светлана Кожемякина, Олег Гарбуз, Александр Ткачёнок, Ольга Рачко, Игорь Поршнев, Сергей Здоронков, Елена Барсукова (II), Эрик Абрамович, Александра Римкевич, Егор фёдоров (II), Виталина Бидюк, Анастасия Боброва, Дарья Перегудова, Алёна Змитер, Татьяна Бычковская, Ольга Дятловская, Евгений Казакевич, Ирина Нарбекова, Мария Чигур, Александр Гелейша, Надежда Цветкова

Описание: В отделении патологии перинатального центра "Мать и дитя" работает дружный коллектив медиков. Заведующий отделением Бобровский, хирург от Бога и любимец женщин, наконец, нашёл свою избранницу, но семейная жизнь оказалась не такой уж радужной. Доктор Вера Михайловна Стрельцова счастлива замужем и после долгих лет лечения наконец-то забеременела. Но это радостное событие омрачено её страхами и опасениями за здоровье малыша. Доктор Наталья Сергеевна вопреки здравому смыслу по-прежнему безответно влюблена в Бобровского. А интерн Сосновский, талантливый диагност, по уши влюблён в Наталью Сергеевну и упорно добивается её расположения. Медсестра Аня влюбчива, романтична и в ожидании большого чувства увлекается Сосновским. А ещё каждый день в отделение патологии поступают пациентки с угрозой прерывания беременности. У всех женщин своя история, полная драматизма и искренней любви, продолжившаяся интересным положением. И пока мамочки дожидаются самого важного события в своей жизни, медики решают свои профессиональные, семейные и личные проблемы.

Рейтинг и доп. информация:


Видео: 1024x576 (16:9), 25 fps, AVC MPEG-4 (x264), ~ 1600 kbps , 0.109 bit/pixel
Аудио: 44 kHz, AC3, 2/0 (L,R) ch, ~192.00 kbps avg
Общее
Уникальный идентификатор : 185135313200743312475791277407679498664 (0x8B47C3AC289B7BDE8D66C49CD41349A8)
Полное имя : C:\Ой,ма-моч-ки!.s02.(2017).WEB-DLRip.(AVC).\01.Ой, ма-моч-ки!.s02.(2017).WEB-DLRip.(AVC).mkv
Формат : Matroska
Версия формата : Version 2
Размер файла : 644 Мбайт
Продолжительность : 50 м. 13 с.
Общий поток : 1794 Кбит/сек
Дата кодирования : UTC 2018-04-09 20:15:36
Программа кодирования : mkvmerge v7.8.0 ('River Man') 32bit built on Apr 3 2015 12:11:22
Библиотека кодирования : libebml v1.3.1 + libmatroska v1.4.2

Видео
Идентификатор : 1
Формат : AVC
Формат/Информация : Advanced Video Codec
Профиль формата :
Настройки формата : CABAC / 9 Ref Frames
Параметр CABAC формата : Да
Параметр RefFrames формата : 9 кадров
Идентификатор кодека : V_MPEG4/ISO/AVC
Продолжительность : 50 м. 13 с.
Битрейт : 1600 Кбит/сек
Ширина : 1024 пикселя
Высота : 576 пикселей
Соотношение сторон : 16:9
Режим частоты кадров : Постоянный
Частота кадров : 25,000 кадров/сек
Цветовое пространство : YUV
Субдискретизация насыщенности : 4:2:0
Битовая глубина : 8 бит
Тип развёртки : Прогрессивная
Бит/(Пиксели*Кадры) : 0.109
Размер потока : 563 Мбайт (87%)
Библиотека кодирования : x264 core 146 r2538 121396c
Настройки программы : cabac=1 / ref=9 / deblock=1:-2:-1 / analyse=0x3:0x133 / me=umh / subme=9 / psy=1 / psy_rd=1.00:0.15 / mixed_ref=1 / me_range=32 / chroma_me=1 / trellis=2 / 8x8dct=1 / cqm=0 / deadzone=21,11 / fast_pskip=0 / chroma_qp_offset=-3 / threads=18 / lookahead_threads=3 / sliced_threads=0 / nr=0 / decimate=1 / interlaced=0 / bluray_compat=0 / constrained_intra=0 / bframes=9 / b_pyramid=2 / b_adapt=2 / b_bias=0 / direct=1 / weightb=1 / open_gop=0 / weightp=2 / keyint=250 / keyint_min=25 / scenecut=40 / intra_refresh=0 / rc=2pass / mbtree=0 / bitrate=1600 / ratetol=1.0 / qcomp=0.60 / qpmin=0 / qpmax=69 / qpstep=4 / cplxblur=20.0 / qblur=0.5 / ip_ratio=1.40 / pb_ratio=1.30 / aq=2:1.00
Default : Да
Forced : Нет
Цветовой диапазон : Limited
Основные цвета : BT.709
Характеристики трансфера : BT.709
Коэффициенты матрицы : BT.709

Аудио
Идентификатор : 2
Формат : AC-3
Формат/Информация : Audio Coding 3
Идентификатор кодека : A_AC3
Продолжительность : 50 м. 13 с.
Вид битрейта : Постоянный
Битрейт : 192 Кбит/сек
Каналы : 2 канала
Расположение каналов : Front: L R
Частота : 44,1 КГц
Частота кадров : 28,711 кадров/сек (1536 SPF)
Битовая глубина : 16 бит
Метод сжатия : С потерями
Размер потока : 69,0 Мбайт (11%)
ServiceKind/String : Complete Main
Default : Да
Forced : Нет








   Похожие торренты   Торрент   Размер 
В этой теме нет новых непрочитанных сообщений. Ма-моч-ки!.. / Ой, ма-моч-ки! (2 сезон 1-2 серия из 8) (Иван Павлов) [2017, мелодрама, WEB-DLRip-AVC]

7 | 1

1.26 ГБ

В этой теме нет новых непрочитанных сообщений. Ма-моч-ки!.. / Ой, ма-моч-ки! (2 сезон 1-4 серия из 8) (Иван Павлов) [2017, мелодрама, WEB-DLRip-AVC]

3 | 0

2.52 ГБ

В этой теме нет новых непрочитанных сообщений. Ма-моч-ки!.. / Ой, ма-моч-ки! (2 сезон 1-6 серия из 8) (Иван Павлов) [2017, мелодрама, WEB-DLRip-AVC]

4 | 4

3.79 ГБ

В этой теме нет новых непрочитанных сообщений. Ма-моч-ки!.. / Ой, ма-моч-ки! (2 сезон 1-2 серия из 8) (Иван Павлов) [2017, мелодрама, WEB-DLRip]

0 | 0

1.17 ГБ

В этой теме нет новых непрочитанных сообщений. Ма-моч-ки!.. / Ой, ма-моч-ки! (2 сезон 1-6 серия из 8) (Иван Павлов) [2017, мелодрама, WEB-DLRip]

0 | 0

3.52 ГБ

В этой теме нет новых непрочитанных сообщений. Ма-моч-ки!.. / Ой, ма-моч-ки! (2 сезон 1-8 серия из 8) (Иван Павлов) [2017, мелодрама, WEB-DLRip]

17 | 0

4.69 ГБ

В этой теме нет новых непрочитанных сообщений. Однажды в сказке, 7 сезон 1-17 серия из 22 / Once Upon a Time [Невафильм] (Дин Уайт, Ральф Хемекер, Пол А. Эдвардс) [2017, фэнтези, мелодрама, приключения, WEB-DLRip, D] / Однажды в Сказке

12 | 5

8.7 ГБ




Вы не можете начинать темы
Вы не можете отвечать на сообщения
Вы не можете редактировать свои сообщения
Вы не можете удалять свои сообщения
Вы не можете добавлять вложения

Перейти:  
 Вход
ppkBB3cker v.2 © 2008-2014 @ PPK
[ Time : 0.021s | 15 Queries | GZIP : Off ]

cron