img image001 image001 image001 image001 image001 image001 image001 image001 image001 image001 image001 image001 image001 image001 image001 image001

Planets Sun Sun Sun
Статистика раздачи
Автор: Снежана | Размер: 16.77 ГБ | Добавлен: 17 мар 2018
Раздают: 1    Качают: 0
Скачать торрент
Скачать торрент
Описание торрента

СообщениеДобавлено: 17 мар 2018 

Высокие ставки (2 сезон 1-8 серии из 16) Реванш


Перевод: Не требуется
Субтитры: отсутствуют
Формат: WEBRip 1080p, MKV, H264, AC3
Страна: Россия
Режиссер: Максим Бриус
Жанр: драма, криминал
Всего серий: 24
Продолжительность: 8 х ~ 00:48:00
Год выпуска: 2018

В ролях: Алексей Нилов, Максим Дахненко, Лукерья Ильяшенко, Алексей Парасевич, Сергей Волков (III), Владимир Литвинов, Дмитрий Караневский, Ксения Белобородова, Дарья Зарецкая, Валерий Филонов, Николай Иванов (VII), Александр Дюрис, Максим Сергеев, Аграфена Петровская, Владимир Сороколита, Евгения Абдулаева, Евгений Овсянников, Марчин Руй, Исса Дауров, Сергей Стукалов...

Описание: Действие второго сезона происходит спустя несколько лет после завершения событий, о которых рассказано в первой части картины. Юрий Сергеев по прозвищу «Космонавт» продолжает управлять своим казино в отсутствие друга и главного помощника Капитана, который скоро должен выйти на свободу из заключения. Между тем, дела Космонавта идут всё хуже. Казино с каждым днём приносит меньше прибыли, старые клиенты один за другим переходят на более безопасный и удобный способ получать удовольствие от азартных игр – они становятся пользователями онлайн-казино. Самым популярным из них является казино «Russian Glory», открытое молодой амбициозной предпринимательницей Глорией Филиппенковой, хорошо разбирающейся в современных технологиях. Неожиданно Глория делает Космонавту предложение о совместном ведении бизнеса и нагло вторгается на территорию старого бандита.



Видео: 1920x1080i (16:9), 25,000 fps, AVC MPEG-4 (x264), High@L4, ~ 6 000 Кбит/сек, 0.116 bit/pixel
Аудио: 48 kHz, AC3 Dolby Digital, 2/0 (L,R) ch, ~192 kbps avg

Внимание! Раздача ведётся путём добавления новых серий. При каждом добавлении создаётся новый торрент.
Чтобы начать докачку новой серии, пользователям необходимо сделать следующее:
1. Остановить скачивание.
2. Удалить старый торрент у себя из клиента (старые серии удалять не надо).
3. Скачать новый торрент и запустить его у себя в клиенте вместо старого, при этом указать клиенту путь в старую папку куда и должно происходить скачивание новых серий. Ваш клиент при этом должен произвести хеширование (проверку) старой папки и будет докачивать только те серии, которых у вас ещё нет. Старые серии при этом не удаляются, а продолжают раздаваться! Eсли вы уже удалили старые серии, то предотвратить повторную закачку старых серий можно, отжав галочку в соответствующих местах при запуске нового торрента.








Общее
Уникальный идентификатор : 183856645674006275996295283113558442051 (0x8A51807EFF297A25AA0287F2A0C28043)
Полное имя : E:\Закачка-2\Vysokie.stavki.Revansh.02.(01.seriya).2017.WEB-DL.(1080p).Nikolspup.mkv
Формат : Matroska
Версия формата : Version 4 / Version 2
Размер файла : 2,08 Гбайт
Продолжительность : 48 м.
Режим общего битрейта : Постоянный
Общий поток : 6178 Кбит/сек
Дата кодирования : UTC 2018-03-12 17:56:17
Программа кодирования : mkvmerge v7.8.0 ('River Man') 32bit built on Mar 27 2015 16:18:02
Библиотека кодирования : libebml v1.3.1 + libmatroska v1.4.2

Видео
Идентификатор : 1
Формат : AVC
Формат/Информация : Advanced Video Codec
Профиль формата :
Параметр CABAC формата : Нет
Параметр ReFrames формата : 2 кадра
Идентификатор кодека : V_MPEG4/ISO/AVC
Продолжительность : 48 м.
Вид битрейта : Постоянный
Битрейт : 6000 Кбит/сек
Ширина : 1920 пикселей
Высота : 1080 пикселей
Соотношение сторон : 16:9
Режим частоты кадров : Постоянный
Частота кадров : 25,000 кадров/сек
Стандарт вещания : PAL
Цветовое пространство : YUV
Субдискретизация насыщенности : 4:2:0
Битовая глубина : 8 бит
Тип развёртки : Прогрессивная
Бит/(Пиксели*Кадры) : 0.116
Размер потока : 1,98 Гбайт (95%)
Default : Нет
Forced : Нет
Цветовой диапазон : Limited
Основные цвета : BT.709
Характеристики трансфера : BT.709
Коэффициенты матрицы : BT.709

Аудио
Идентификатор : 2
Формат : AC-3
Формат/Информация : Audio Coding 3
Расширение режима : CM (complete main)
Параметр Endianness формата : Big
Идентификатор кодека : A_AC3
Продолжительность : 48 м.
Вид битрейта : Постоянный
Битрейт : 192 Кбит/сек
Каналы : 2 канала
Расположение каналов : Front: L R
Частота : 48,0 КГц
Частота кадров : 31,250 кадров/сек (1536 spf)
Метод сжатия : С потерями
Размер потока : 66,3 Мбайт (3%)
Язык : Russian
Default : Да
Forced : Да






   Похожие торренты   Торрент   Размер 
В этой теме нет новых непрочитанных сообщений. Высокие ставки (2 сезон 1-4 серии из 24) Реванш (Максим Бриус) [2018, драма, криминал, WEBRip 1080p]

2 | 0

8.42 ГБ

В этой теме нет новых непрочитанных сообщений. Высокие ставки (2 сезон 1-10 серии из 16) Реванш (Максим Бриус) [2018, драма, криминал, WEBRip-AVC]

22 | 4

7.47 ГБ

В этой теме нет новых непрочитанных сообщений. Высокие ставки (2 сезон 1-8 серии из 24) Реванш (Максим Бриус) [2018, драма, криминал, WEBRip]

57 | 2

4.7 ГБ

В этой теме нет новых непрочитанных сообщений. Высокие ставки (2 сезон 1-16 серии из 16) Реванш (Максим Бриус) [2018, драма, криминал, WEBRip]

89 | 11

9.41 ГБ

В этой теме нет новых непрочитанных сообщений. Высокие ставки (2 сезон 1-16 серии из 16) Реванш (Максим Бриус) [2018, драма, криминал, WEBRip-AVC]

51 | 7

12.02 ГБ

В этой теме нет новых непрочитанных сообщений. Высокие ставки (2 сезон 1-12 серии из 16) Реванш (Максим Бриус) [2018, драма, криминал, WEBRip-AVC]

6 | 0

8.97 ГБ

В этой теме нет новых непрочитанных сообщений. Высокие ставки (2 сезон 1-14 серии из 16) Реванш (Максим Бриус) [2018, драма, криминал, WEBRip-AVC]

13 | 1

10.47 ГБ




Вы не можете начинать темы
Вы не можете отвечать на сообщения
Вы не можете редактировать свои сообщения
Вы не можете удалять свои сообщения
Вы не можете добавлять вложения

Перейти:  
 Вход
ppkBB3cker v.2 © 2008-2014 @ PPK
[ Time : 0.033s | 17 Queries | GZIP : Off ]

cron