img image001 image001 image001 image001 image001 image001 image001 image001 image001 image001 image001 image001 image001 image001 image001 image001

Planets Sun Sun Sun
Статистика раздачи
Автор: Снежана | Размер: 4.84 ГБ | Добавлен: 07 мар 2018
Раздают: 79    Качают: 5
Скачать торрент
Скачать торрент
Описание торрента

СообщениеДобавлено: 07 мар 2018 

Спящие (2 сезон 1-4 серии из 4)

Перевод: Не требуется, cубтитры: отсутствуют
Формат: HDTVRip 720p, MKV, H.264, AC3
Страна: Россия
Режиссер: Сергей Арланов
Жанр: триллер
Всего серий: 4
Продолжительность: 4 х ~ 00:50:00
Год выпуска: 2018

В ролях: Игорь Петренко, Игорь Миркурбанов, Юрий Лахин, Наталья Рогожкина, Дмитрий Ульянов, Юрий Беляев, Игорь Угольников, Аристарх Венес, Сергей Тишин, Юрий Киндрат, Сергей Угрюмов, Стэнли Красовицки, Северия Янушаускайте, Максим Аль-Намес, Андрей Мартынов (IV), Алексей Тахаров

Описание: Январь 2015 года. На одной из баз террористов на границе Туниса и Ливии происходит подготовка к масштабному теракту в Москве. Местный сотрудник миссии ООН Джафар Сафради, инспектирующий лагерь беженцев, под прикрытием которого расположена база террористов, случайно становится свидетелем этой подготовки. Он оперативно передает информацию в Москву. Агент Джафар работает только с теми, кто его завербовал, и поэтому информация приходит Андрею Родионову, который знает Джафара еще со времен своей службы в Ливии. С большой неохотой генерал Нефедов отправляет Родионова в опасную командировку. А для Андрея это шанс вернуться к прежней работе...

Рейтинг и доп. информация:


Видео: 1280x536 (2,40:1), 25 fps, AVC MPEG-4 (x264), ~ 3500 kbps avg, 0.204 bit/pixel
Аудио: 48 kHz, AC3, 2 ch, ~192.00 kbps avg
Общее
Уникальный идентификатор : 191468903970256539589108036068691412291 (0x900B91CE85BDA31197513217153C0543)
Полное имя : C:\Spjashhie-2.HDTVRip.(720p).\01.Spjashhie-2.HDTVRip.(720p).mkv
Формат : Matroska
Версия формата : Version 2
Размер файла : 1,28 Гбайт
Продолжительность : 49 м. 29 с.
Общий поток : 3694 Кбит/сек
Дата кодирования : UTC 2018-03-05 16:32:13
Программа кодирования : mkvmerge v6.1.0 ('Old Devil') built on Mar 4 2013 09:10:42
Библиотека кодирования : libebml v1.3.0 + libmatroska v1.4.0

Видео
Идентификатор : 1
Формат : AVC
Формат/Информация : Advanced Video Codec
Профиль формата :
Настройки формата : CABAC / 9 Ref Frames
Параметр CABAC формата : Да
Параметр RefFrames формата : 9 кадров
Идентификатор кодека : V_MPEG4/ISO/AVC
Продолжительность : 49 м. 29 с.
Битрейт : 3500 Кбит/сек
Ширина : 1280 пикселей
Высота : 536 пикселей
Соотношение сторон : 2,40:1
Режим частоты кадров : Постоянный
Частота кадров : 25,000 кадров/сек
Цветовое пространство : YUV
Субдискретизация насыщенности : 4:2:0
Битовая глубина : 8 бит
Тип развёртки : Прогрессивная
Бит/(Пиксели*Кадры) : 0.204
Размер потока : 1,19 Гбайт (93%)
Библиотека кодирования : x264 core 130 r2273 b3065e6
Настройки программы : cabac=1 / ref=9 / deblock=1:-2:-1 / analyse=0x3:0x133 / me=umh / subme=9 / psy=1 / psy_rd=1.00:0.15 / mixed_ref=1 / me_range=32 / chroma_me=1 / trellis=2 / 8x8dct=1 / cqm=0 / deadzone=21,11 / fast_pskip=0 / chroma_qp_offset=-3 / threads=18 / lookahead_threads=3 / sliced_threads=0 / nr=0 / decimate=0 / interlaced=0 / bluray_compat=0 / constrained_intra=0 / bframes=9 / b_pyramid=2 / b_adapt=2 / b_bias=0 / direct=3 / weightb=1 / open_gop=0 / weightp=2 / keyint=250 / keyint_min=25 / scenecut=40 / intra_refresh=0 / rc=2pass / mbtree=0 / bitrate=3500 / ratetol=1.0 / qcomp=0.60 / qpmin=0 / qpmax=69 / qpstep=4 / cplxblur=20.0 / qblur=0.5 / ip_ratio=1.40 / pb_ratio=1.30 / aq=2:1.00
Default : Да
Forced : Нет
Цветовой диапазон : Limited
Основные цвета : BT.709
Характеристики трансфера : BT.709
Коэффициенты матрицы : BT.709

Аудио
Идентификатор : 2
Формат : AC-3
Формат/Информация : Audio Coding 3
Идентификатор кодека : A_AC3
Продолжительность : 49 м. 29 с.
Вид битрейта : Постоянный
Битрейт : 192 Кбит/сек
Каналы : 2 канала
Расположение каналов : Front: L R
Частота : 48,0 КГц
Частота кадров : 31,250 кадров/сек (1536 SPF)
Битовая глубина : 16 бит
Метод сжатия : С потерями
Размер потока : 68,0 Мбайт (5%)
ServiceKind/String : Complete Main
Default : Да
Forced : Нет








   Похожие торренты   Торрент   Размер 
В этой теме нет новых непрочитанных сообщений. Спящие (2 сезон 1-2 серии из 4) (Сергей Арланов) [2018, триллер, HDTVRip 720p]

7 | 2

2.56 ГБ

В этой теме нет новых непрочитанных сообщений. Спящие (2 сезон 1-4 серии из 4) (Сергей Арланов) [2018, триллер, HDTVRip]

50 | 0

2.62 ГБ

В этой теме нет новых непрочитанных сообщений. Спящие (2 сезон 1-4 серии из 4) (Сергей Арланов) [2018, триллер, HDTVRip-AVC]

28 | 6

2.87 ГБ

В этой теме нет новых непрочитанных сообщений. Спящие (2 сезон 1-2 серии из 4) (Сергей Арланов) [2018, триллер, HDTVRip-AVC]

0 | 0

1.52 ГБ

В этой теме нет новых непрочитанных сообщений. Спящие (2 сезон 1-4 серии из 4) (Сергей Арланов) [2018, триллер, SATRip]

59 | 7

2.42 ГБ

В этой теме нет новых непрочитанных сообщений. Спящие (2 сезон 1-2 серии из 4) (Сергей Арланов) [2018, триллер, WEB-DLRip]

3 | 0

1.09 ГБ

В этой теме нет новых непрочитанных сообщений. Спящие (2 сезон 1-4 серии из 4) (Сергей Арланов) [2018, триллер, WEB-DLRip]

49 | 1

2.17 ГБ




Вы не можете начинать темы
Вы не можете отвечать на сообщения
Вы не можете редактировать свои сообщения
Вы не можете удалять свои сообщения
Вы не можете добавлять вложения

Перейти:  
 Вход
ppkBB3cker v.2 © 2008-2014 @ PPK
[ Time : 0.030s | 17 Queries | GZIP : Off ]

cron