img image001 image001 image001 image001 image001 image001 image001 image001 image001 image001 image001 image001 image001 image001 image001 image001

Planets Sun Sun Sun
Статистика раздачи
Автор: Снежана | Размер: 33.3 ГБ | Добавлен: 23 фев 2018
Раздают: 5    Качают: 5
Скачать торрент
Скачать торрент
Описание торрента

СообщениеДобавлено: 23 фев 2018 

Невский (2 сезон: 1-26 серии из 32) Проверка на прочность

Перевод: Не требуется, cубтитры: отсутствуют
Формат: WEBRip 720p, MKV, H.264, AC3
Страна: Россия
Режиссер: Андрей Коршунов, Алексей Павлов, Игорь Драка
Жанр: криминал, драма
Всего серий: 32
Продолжительность: 26 х ~ 00:51:00
Год выпуска: 2017
В ролях: Антон Васильев (III), Андрей Гульнев, Сергей Кошонин, Дмитрий Паламарчук, Светлана Цвиченко, Николай Смирнов (V), Юрий Архангельский, Николай Горшков, Мария Капустинская, Игорь Михайлов (IV), Сергей Ионкин, Александр Конев, Виталий Бисеров, Юрий Ковалёв, Роман Притула, Степан Пивкин, Мария Русских, Глафира Козулина, Анатолий Хропов, Анна Лапина, Владимир Петров (VIII), Анастасия Забирова, Ольга Янковская, Дарья Степанова, Константин Демидов (II), Александр Михайлов-Уральский, Юрий Уткин, Андрей Некрасов (III), Геша Меньшиков
Описание:
Прошло больше года с тех пор, как майор полиции Павел Семёнов сумел вычислить и задержать легендарного киллера по кличке Архитектор. Однако это не принесло оперу долгожданной радости. Ведь Архитектором оказался его близкий друг и бывший напарник по службе в уголовном розыске - Кирилл Назаров. Переживает Семёнов и другую личную трагедию. Его жена Юля подверглась нападению вооруженных наркоманов и применила против них травматический пистолет. Один из наркоманов погиб, а второй дал показания против самой Юли. Суд принял сторону следствия и приговорил девушку к трём годам лишения свободы в колонии общего режима. В результате этих событий Семёнов решил оставить службу в органах. Во-первых, он разочарован в полицейской системе. Во-вторых, он хочет больше времени проводить со своим сыном. Паша понимает, что если с ним что-нибудь случится на службе - о его сыне будет некому позаботиться...



Видео: 1280x720 (16:9), 25 fps, AVC H264, ~3429 kbps avg, ~0.149 bit/pixel
Аудио: 48 kHz, АС3, 2 ch, (Front: L R) ~192.00 kbps avg

Доп. информация:
Release от Nikolspup

Внимание! Раздача ведётся путём добавления новых серий. При каждом добавлении создаётся новый торрент.
Чтобы начать докачку новой серии, пользователям необходимо сделать следующее:
1. Остановить скачивание.
2. Удалить старый торрент у себя из клиента (старые серии удалять не надо).
3. Скачать новый торрент и запустить его у себя в клиенте вместо старого, при этом указать клиенту путь в старую папку куда и должно происходить скачивание новых серий. Ваш клиент при этом должен произвести хеширование (проверку) старой папки и будет докачивать только те серии, которых у вас ещё нет. Старые серии при этом не удаляются, а продолжают раздаваться! Eсли вы уже удалили старые серии, то предотвратить повторную закачку старых серий можно, отжав галочку в соответствующих местах при запуске нового торрента.

Общее
Уникальный идентификатор : 169122933639925899539327636215399599801 (0x7F3BE46865AEF4BAB4CCF33A3ADE4EB9)
Полное имя : F:\Фильмы торренты\Nevskiy-2.2017.WEB-DL.(720p).Nikolspup\Nevskiy-2.(01.seriya).2017.WEB-DL.(720p).Nikolspup.mkv
Формат : Matroska
Версия формата : Version 2
Размер файла : 1,32 Гбайт
Продолжительность : 51 м. 9 с.
Общий поток : 3694 Кбит/сек
Программа кодирования : Lavf54.63.104
Библиотека кодирования : Lavf54.63.104

Видео
Идентификатор : 1
Формат : AVC
Формат/Информация : Advanced Video Codec
Профиль формата :
Настройки формата : CABAC / 9 Ref Frames
Параметр CABAC формата : Да
Параметр RefFrames формата : 9 кадров
Идентификатор кодека : V_MPEG4/ISO/AVC
Продолжительность : 51 м. 9 с.
Битрейт : 3429 Кбит/сек
Ширина : 1280 пикселей
Высота : 720 пикселей
Соотношение сторон : 16:9
Режим частоты кадров : Постоянный
Частота кадров : 25,000 кадров/сек
Цветовое пространство : YUV
Субдискретизация насыщенности : 4:2:0
Битовая глубина : 8 бит
Тип развёртки : Прогрессивная
Бит/(Пиксели*Кадры) : 0.149
Размер потока : 1,23 Гбайт (93%)
Default : Нет
Forced : Нет
Цветовой диапазон : Limited
Основные цвета : BT.709
Характеристики трансфера : BT.709
Коэффициенты матрицы : BT.709

Аудио
Идентификатор : 2
Формат : AC-3
Формат/Информация : Audio Coding 3
Параметр Endianness формата : Big
Идентификатор кодека : A_AC3
Продолжительность : 51 м. 9 с.
Вид битрейта : Постоянный
Битрейт : 192 Кбит/сек
Каналы : 2 канала
Расположение каналов : Front: L R
Частота : 48,0 КГц
Частота кадров : 31,250 кадров/сек (1536 SPF)
Битовая глубина : 16 бит
Метод сжатия : С потерями
Размер потока : 70,2 Мбайт (5%)
Язык : Russian
ServiceKind/String : Complete Main
Default : Да
Forced : Нет








   Похожие торренты   Торрент   Размер 
В этой теме нет новых непрочитанных сообщений. Невский (2 сезон 1-32 серии из 32) Проверка на прочность (Андрей Коршунов, Алексей Павлов, Игорь Драка) [2017, криминал, драма, WEBRip 720p]

7 | 1

40.88 ГБ

В этой теме нет новых непрочитанных сообщений. Невский (2 сезон 1-26 серии из 32) Проверка на прочность (Андрей Коршунов, Алексей Павлов, Игорь Драка) [2017, драма, криминал, WEBRip]

48 | 81

15.26 ГБ

В этой теме нет новых непрочитанных сообщений. Невский (2 сезон 1-24 серии из 32) Проверка на прочность (Андрей Коршунов, Алексей Павлов, Игорь Драка) [2017, драма, криминал, WEBRip]

24 | 4

8.72 ГБ

В этой теме нет новых непрочитанных сообщений. Невский (2 сезон 1-28 серии из 32) Проверка на прочность (Андрей Коршунов, Алексей Павлов, Игорь Драка) [2017, драма, криминал, WEBRip]

16 | 14

10.18 ГБ

В этой теме нет новых непрочитанных сообщений. Невский (2 сезон 1-32 серии из 32) Проверка на прочность (Андрей Коршунов, Алексей Павлов, Игорь Драка) [2017, драма, криминал, WEBRip]

96 | 32

18.78 ГБ

В этой теме нет новых непрочитанных сообщений. Невский (2 сезон 1-32 серии из 32) Проверка на прочность (Андрей Коршунов, Алексей Павлов, Игорь Драка) [2017, драма, криминал, WEBRip]

47 | 6

11.64 ГБ

В этой теме нет новых непрочитанных сообщений. Невский (2 сезон 1-26 серии из 32) Проверка на прочность (Андрей Коршунов, Алексей Павлов, Игорь Драка) [2017, драма, криминал, WEBRip]

30 | 35

9.45 ГБ




Вы не можете начинать темы
Вы не можете отвечать на сообщения
Вы не можете редактировать свои сообщения
Вы не можете удалять свои сообщения
Вы не можете добавлять вложения

Перейти:  
 Вход
ppkBB3cker v.2 © 2008-2014 @ PPK
[ Time : 0.023s | 16 Queries | GZIP : Off ]

cron