img image001 image001 image001 image001 image001 image001 image001 image001 image001 image001 image001 image001 image001 image001 image001 image001

Planets Sun Sun Sun
Статистика раздачи
Автор: Снежана | Размер: 1.6 ГБ | Добавлен: 20 фев 2018
Раздают: 7    Качают: 0
Скачать торрент
Скачать торрент
Описание торрента

СообщениеДобавлено: 20 фев 2018 

Вольная грамота (1-2 серии из 16)

Перевод: Не требуется, cубтитры: отсутствуют
Формат: HDTVRip-AVC, MKV, H.264, AC3
Страна: Россия
Режиссер: Дмитрий Черкасов
Жанр: история, мелодрама
Всего серий: 16
Продолжительность: 2 х ~ 00:50:00
Год выпуска: 2018

В ролях: Татьяна Бабенкова, Артём Крылов, Владислав Абашин, Иван Добронравов, Ксения Разина, Артём Ткаченко, Владислав Ветров, Катарина Шпиринг, Иван Шибанов, Анна Лутцева, Александра Власова, Александр Обласов, Николай Качура, Сергей Барковский, Мария Сокова, Максим Онищенко, Олег Мазуров, Алевтина Полосина, Мария Палей, Александр Рагулин, Владимир Торопов, Маргарита Бычкова, Николай Аверюшкин, Елена Грук-Чернова, Валерий Новиков, Евгения Туркова, Илья Мирошников, Екатерина Ершова, Юрий Сазонов, Никита Барсуков, Елена Петрова, Ольга Рептух, Андрей Бажин, Анатолий Бледный, Ольга Цинк, Александр Савельев, Антон Стреляев, Екатерина Стеблина, Артём Маковский, Ольга Калашникова, Елена Суркова, Никита Гуревский, Вадим Дзюба

Описание: Полина Лебедева, воспитанница бездетного князя Алексея Петровича Головина – самая завидная невеста Ямбургского уезда. Во время бала в честь её именин Алексей Петрович умирает от внезапного сердечного приступа. Это горе – лишь начало тяжёлых испытаний, уготованных девушке судьбой. Полина числится крепостной. Образованная, воспитанная как подобает барышне, она вместе с другими крепостными становится собственностью непутёвого племянника покойного, игрока и пропойцы Сергея Головина. Тот, чтобы покрыть карточные долги, спешно продаёт имение со всем имуществом и крепостными душами соседу и давнему врагу дяди – графу Кречетскому. Уездное общество смотрит теперь на Полину с презрением, жених предаёт, а новый хозяин настойчиво добивается близости...

Рейтинг и доп. информация:


Видео: 1024x576 (16:9), 25 fps, AVC MPEG-4 (x264), ~ 2000 kbps , 0.136 bit/pixel
Аудио: 48 kHz, AC3, 2/0 (L,R) ch, ~192.00 kbps avg
Внимание! Раздача ведётся путём добавления новых серий. При каждом добавлении создаётся новый торрент.
Чтобы начать докачку новой серии, пользователям необходимо сделать следующее:
1. Остановить скачивание.
2. Удалить старый торрент у себя из клиента (старые серии удалять не надо).
3. Скачать новый торрент и запустить его у себя в клиенте вместо старого, при этом указать клиенту путь в старую папку куда и должно происходить скачивание новых серий. Ваш клиент при этом должен произвести хеширование (проверку) старой папки и будет докачивать только те серии, которых у вас ещё нет. Старые серии при этом не удаляются, а продолжают раздаваться! Eсли вы уже удалили старые серии, то предотвратить повторную закачку старых серий можно, отжав галочку в соответствующих местах при запуске нового торрента.


Общее
Уникальный идентификатор : 206296165022086174490291231725101785899 (0x9B333237BA25B94B8668F18CFE2C232B)
Полное имя : C:\Volnaja gramota.(2018).HDTVRip.(AVC).\01.Volnaja gramota.(2018).HDTVRip.AVC.mkv
Формат : Matroska
Версия формата : Version 2
Размер файла : 834 Мбайт
Продолжительность : 53 м. 8 с.
Общий поток : 2194 Кбит/сек
Дата кодирования : UTC 2018-02-19 18:55:12
Программа кодирования : mkvmerge v7.8.0 ('River Man') 32bit built on Apr 3 2015 12:11:22
Библиотека кодирования : libebml v1.3.1 + libmatroska v1.4.2

Видео
Идентификатор : 1
Формат : AVC
Формат/Информация : Advanced Video Codec
Профиль формата :
Настройки формата : CABAC / 9 Ref Frames
Параметр CABAC формата : Да
Параметр RefFrames формата : 9 кадров
Идентификатор кодека : V_MPEG4/ISO/AVC
Продолжительность : 53 м. 8 с.
Битрейт : 2000 Кбит/сек
Ширина : 1024 пикселя
Высота : 576 пикселей
Соотношение сторон : 16:9
Режим частоты кадров : Постоянный
Частота кадров : 25,000 кадров/сек
Цветовое пространство : YUV
Субдискретизация насыщенности : 4:2:0
Битовая глубина : 8 бит
Тип развёртки : Прогрессивная
Бит/(Пиксели*Кадры) : 0.136
Размер потока : 744 Мбайт (89%)
Библиотека кодирования : x264 core 146 r2538 121396c
Настройки программы : cabac=1 / ref=9 / deblock=1:-2:-1 / analyse=0x3:0x133 / me=umh / subme=9 / psy=1 / psy_rd=1.00:0.15 / mixed_ref=1 / me_range=32 / chroma_me=1 / trellis=2 / 8x8dct=1 / cqm=0 / deadzone=21,11 / fast_pskip=0 / chroma_qp_offset=-3 / threads=18 / lookahead_threads=3 / sliced_threads=0 / nr=0 / decimate=1 / interlaced=0 / bluray_compat=0 / constrained_intra=0 / bframes=9 / b_pyramid=2 / b_adapt=2 / b_bias=0 / direct=1 / weightb=1 / open_gop=0 / weightp=2 / keyint=250 / keyint_min=25 / scenecut=40 / intra_refresh=0 / rc=2pass / mbtree=0 / bitrate=2000 / ratetol=1.0 / qcomp=0.60 / qpmin=0 / qpmax=69 / qpstep=4 / cplxblur=20.0 / qblur=0.5 / ip_ratio=1.40 / pb_ratio=1.30 / aq=2:1.00
Default : Да
Forced : Нет
Цветовой диапазон : Limited
Основные цвета : BT.709
Характеристики трансфера : BT.709
Коэффициенты матрицы : BT.709

Аудио
Идентификатор : 2
Формат : AC-3
Формат/Информация : Audio Coding 3
Идентификатор кодека : A_AC3
Продолжительность : 53 м. 8 с.
Вид битрейта : Постоянный
Битрейт : 192 Кбит/сек
Каналы : 2 канала
Расположение каналов : Front: L R
Частота : 48,0 КГц
Частота кадров : 31,250 кадров/сек (1536 SPF)
Битовая глубина : 16 бит
Метод сжатия : С потерями
Размер потока : 73,0 Мбайт (9%)
ServiceKind/String : Complete Main
Default : Да
Forced : Нет








   Похожие торренты   Торрент   Размер 
В этой теме нет новых непрочитанных сообщений. Вольная грамота (1-10 серии из 16) (Дмитрий Черкасов) [2018, история, мелодрама, HDTVRip-AVC]

1 | 1

7.89 ГБ

В этой теме нет новых непрочитанных сообщений. Вольная грамота (1-4 серии из 16) (Дмитрий Черкасов) [2018, история, мелодрама, HDTVRip-AVC]

5 | 2

3.16 ГБ

В этой теме нет новых непрочитанных сообщений. Вольная грамота (1-4 серии из 16) (Дмитрий Черкасов) [2018, история, мелодрама, HDTVRip]

52 | 31

2.88 ГБ

В этой теме нет новых непрочитанных сообщений. Вольная грамота (1-12 серии из 16) (Дмитрий Черкасов) [2018, история, мелодрама, HDTVRip-AVC]

0 | 0

9.47 ГБ

В этой теме нет новых непрочитанных сообщений. Вольная грамота (1-12 серии из 16) (Дмитрий Черкасов) [2018, история, мелодрама, HDTVRip]

8 | 2

8.63 ГБ

В этой теме нет новых непрочитанных сообщений. Вольная грамота (1-18 серии из 18) (Дмитрий Черкасов) [2018, история, мелодрама, HDTVRip-AVC]

28 | 3

14.24 ГБ

В этой теме нет новых непрочитанных сообщений. Вольная грамота (1-10 серии из 16) (Дмитрий Черкасов) [2018, история, мелодрама, HDTVRip]

19 | 6

7.2 ГБ




Вы не можете начинать темы
Вы не можете отвечать на сообщения
Вы не можете редактировать свои сообщения
Вы не можете удалять свои сообщения
Вы не можете добавлять вложения

Перейти:  
 Вход
ppkBB3cker v.2 © 2008-2014 @ PPK
[ Time : 0.026s | 16 Queries | GZIP : Off ]

cron