img image001 image001 image001 image001 image001 image001 image001 image001 image001 image001 image001 image001 image001 image001 image001 image001

Planets Sun Sun Sun
Статистика раздачи
Автор: PriZraK | Размер: 22.06 ГБ | Добавлен: 12 фев 2018
Раздают: 7    Качают: 0
Скачать торрент
Скачать торрент
Описание торрента

СообщениеДобавлено: 12 фев 2018 

Пятницкий. Глава четвёртая (1-32 серии из 32) + Послесловие

Перевод: Не требуется
Субтитры: отсутствуют
Формат: HDTVRip-AVC, MKV, H.264, AC3
Страна: Россия
Режиссер: Григорий Фёдоров, Олег Галин, Никита Грамматиков
Жанр: детектив, криминал
Всего серий: 32
Продолжительность: 33 x ~ 00:45:00
Год выпуска: 2014

В ролях: Виктория Тарасова, Дмитрий Мазуров, Анна Липко, Антон Батырев, Георгий Тополага, Андрей Сорока, Антон Афанасьев, Сергей Гурьев, Павел Мисаилов, Сандра Элиава, Игорь Стам, Александр Бобров (IV), Степан Рожнов, Александр Лырчиков, Ирина Савицкова, Денис Жариков, Сергей Мищенко, Фёдор Румянцев, Олег Охотниченко, Антон Голышев, Олег Невежин, Анар Халилов, Максим Линников, Андрей Бута, Валерия Сухачева, Григорий Рыжиков, Ирина Колодяжная, Сергей Карасевич, Вадим Тухватуллин, Ольга Елизарова, Таша Романова, Наталья Мунирова, Леонид Ардо, Юлия Чалая, Анна Литкенс, Павел Давыдовский, Ольга Либердовская, Роман Майоров, Артур Мафенбайер, Евгения Щербакова, Владлен Косьянов, Андрей Рудь, Артём Быстров (II), Екатерина Чекменева, Александр Журман, Алексей Ильинский (II), Ярослав Маланин, Александр Баранов (IV), Валерий Опёнкин, Алексей Новиков (II), Пётр Кожевников (II), Андрей Лебедев, Полина Леонова, Екатерина Бикс, Ксения Федотова, Станислав Исаков, Василий Будилов, Артём Ботов, Андрей Колядов, Дмитрий Фрид, Андрей Бажин, Ольга Юрасова, Павел Ключников, Вячеслав Шулекин, Илья Лукашенко, Ольга Ефремова (III), Сергей Ершов (II), Олеся Брежнева, Роман Якушов, Екатерина Фоменко

Описание: В четвертой главе сотрудникам «Пятницкого» противостоит новая сила: принципиальный сотрудник прокуратуры поставил перед собой цель разоблачить коррумпированную полицейскую группу, которую возглавляет Зимина. В конце концов, нашим героям предстоит осознать, насколько далеко они зашли, и от окончательного падения их будет отделять решающее голосование: убить или нет ради собственной безопасности достойного соперника, который не заслуживает смерти даже по их понятиям. Меж тем крепкие отношения в группе пошатнутся. Выдержат ли сотрудники «Пятницкого» очередную проверку на прочность и удастся ли Зиминой выйти сухой из воды, сохранив при этом друзей и человеческий облик?

Рейтинг и доп. информация:


Видео: 1024x576 (16:9), 25.000 fps, MPEG4 AVC (х264) , ~ 2000 kbps avg, 0.136 bit/pixel
Аудио: 48 kHz, AC3, 2 ch, 192 kbps avg
Общее
Уникальный идентификатор : 195882303968059823322707312389019627751 (0x935D8F3A00161695A00DE0ED27E770E7)
Полное имя : Piatnickij.4.2014.HDTVRip.(AVC).\01.Piatnickij.4.2014.HDTVRip.(AVC).mkv
Формат : Matroska
Версия формата : Version 2
Размер файла : 685 Мбайт
Продолжительность : 43 м.
Общий поток : 2194 Кбит/сек
Дата кодирования : UTC 2015-11-24 10:56:16
Программа кодирования : mkvmerge v6.1.0 ('Old Devil') built on Mar 4 2013 09:10:42
Библиотека кодирования : libebml v1.3.0 + libmatroska v1.4.0

Видео
Идентификатор : 1
Формат : AVC
Формат/Информация : Advanced Video Codec
Профиль формата :
Параметр CABAC формата : Да
Параметр ReFrames формата : 9 кадров
Идентификатор кодека : V_MPEG4/ISO/AVC
Продолжительность : 43 м.
Битрейт : 2000 Кбит/сек
Ширина : 1024 пикселя
Высота : 576 пикселей
Соотношение сторон : 16:9
Режим частоты кадров : Постоянный
Частота кадров : 25,000 кадров/сек
Цветовое пространство : YUV
Субдискретизация насыщенности : 4:2:0
Битовая глубина : 8 бит
Тип развёртки : Прогрессивная
Бит/(Пиксели*Кадры) : 0.136
Размер потока : 612 Мбайт (89%)
Библиотека кодирования : x264 core 130 r2273 b3065e6
Настройки программы : cabac=1 / ref=9 / deblock=1:-2:-1 / analyse=0x3:0x133 / me=umh / subme=9 / psy=1 / psy_rd=1.00:0.15 / mixed_ref=1 / me_range=32 / chroma_me=1 / trellis=2 / 8x8dct=1 / cqm=0 / deadzone=21,11 / fast_pskip=0 / chroma_qp_offset=-3 / threads=6 / lookahead_threads=1 / sliced_threads=0 / nr=0 / decimate=1 / interlaced=0 / bluray_compat=0 / constrained_intra=0 / bframes=9 / b_pyramid=2 / b_adapt=2 / b_bias=0 / direct=1 / weightb=1 / open_gop=0 / weightp=2 / keyint=250 / keyint_min=25 / scenecut=40 / intra_refresh=0 / rc=2pass / mbtree=0 / bitrate=2000 / ratetol=1.0 / qcomp=0.60 / qpmin=0 / qpmax=69 / qpstep=4 / cplxblur=20.0 / qblur=0.5 / ip_ratio=1.40 / pb_ratio=1.30 / aq=2:1.00
Default : Да
Forced : Нет
Цветовой диапазон : Limited
Основные цвета : BT.709
Характеристики трансфера : BT.709
Коэффициенты матрицы : BT.709

Аудио
Идентификатор : 2
Формат : AC-3
Формат/Информация : Audio Coding 3
Расширение режима : CM (complete main)
Параметр Endianness формата : Big
Идентификатор кодека : A_AC3
Продолжительность : 43 м.
Вид битрейта : Постоянный
Битрейт : 192 Кбит/сек
Каналы : 2 канала
Расположение каналов : Front: L R
Частота : 48,0 КГц
Метод сжатия : С потерями
Размер потока : 60,0 Мбайт (9%)
Default : Да
Forced : Нет











   Похожие торренты   Торрент   Размер 
В этой теме нет новых непрочитанных сообщений. Пятницкий. Глава четвёртая (1-32 серии из 32) + Послесловие (Григорий Фёдоров, Олег Галин, Никита Грамматиков) [2014, детектив, криминал, HDTVRip 720p] / Глухарь / Пятницкий

2 | 7

50.5 ГБ

В этой теме нет новых непрочитанных сообщений. Пятницкий. Глава четвертая [01-02 из 32] (2014) HDTVRip-AVC от Files-x

39 | 7

1.37 ГБ

В этой теме нет новых непрочитанных сообщений. Пятницкий. Глава четвертая [01-02 из 32] (2014) HDTVRip-AVC от Files-x

8 | 13

4 ГБ

В этой теме нет новых непрочитанных сообщений. Пятницкий. Глава четвертая [01-02 из 32] (2014) HDTVRip-AVC от Files-x

32 | 6

2.69 ГБ

В этой теме нет новых непрочитанных сообщений. Пятницкий. Глава четвертая [01 из 32] (2014) HDTVRip от Files-x

34 | 4

1.07 ГБ

В этой теме нет новых непрочитанных сообщений. Пятницкий. Глава четвертая [01 из 32] (2014) HDTVRip от Files-x

27 | 14

2.15 ГБ

В этой теме нет новых непрочитанных сообщений. Пятницкий. Глава четвёртая [01 из 32] (2014) HDTVRip 720p от MediaClub

9 | 9

6.22 ГБ




Вы не можете начинать темы
Вы не можете отвечать на сообщения
Вы не можете редактировать свои сообщения
Вы не можете удалять свои сообщения
Вы не можете добавлять вложения

Перейти:  
 Вход
ppkBB3cker v.2 © 2008-2014 @ PPK
[ Time : 0.025s | 15 Queries | GZIP : Off ]

cron