img image001 image001 image001 image001 image001 image001 image001 image001 image001 image001 image001 image001 image001 image001 image001 image001

Planets Sun Sun Sun
Статистика раздачи
Автор: PriZraK | Размер: 28.58 ГБ | Добавлен: 12 фев 2018
Раздают: 8    Качают: 0
Скачать торрент
Скачать торрент
Описание торрента

СообщениеДобавлено: 12 фев 2018 

Склифосовский / Склиф (4 сезон 1 - 24 серии из 24 )

Перевод: Не требуется
Субтитры: отсутствуют
Формат: HDTVRip, MKV, H.264, AC3
Страна: Россия
Режиссер: Юлия Краснова
Жанр: драма, мелодрама
Всего серий: 24
Продолжительность: 24x ~ 00:44:00
Год выпуска: 2014-2015

В ролях: Максим Аверин, Елена Яковлева, Марина Могилевская, Мария Куликова, Сергей Жигунов, Сергей Горобченко, Евгения Дмитриева, Константин Юшкевич, Дмитрий Миллер, Ольга Павловец, Владимир Жеребцов

Описание: Фильм о сложных, драматичных, подчас героических буднях врачей главного института скорой помощи — знаменитого «Склифа». Их работа — испытание на прочность, каждый день они дают кому-то вторую жизнь…
В центре истории — непростые отношения хирурга Олега Брагина, блестящего врача, умного, жесткого и харизматичного, но давно отчаявшегося найти в жизни что-то настоящее, кроме работы, и начальницы Ларисы — сумевшей сквозь цинизм Брагина разглядеть потерянного в жизни и одинокого человека…




Видео: 1280x720p (16:9), 25 000 fps, AVC MPEG-4 (x264), ~3500 kbps avg, 0.152 bit/pixel
Аудио: 48 kHz, AC3, 2 ch ~ 192 Kbps

Релиз от:

Релиз предоставлен сайтом my-tfile.org!!


Общее
Уникальный идентификатор : 206511891650859169281104910809362263349 (0x9B5CBE5C95EA2B539F56FCC90486ED35)
Полное имя : D:\КАДИРОВКА\sklifosovsky_s04_[my-tfile.org]\sklifosovsky_s04_[my-tfile.org]_e01.mkv
Формат : Matroska
Версия формата : Version 2
Размер файла : 1,16 Гбайт
Продолжительность : 44 м. 39 с.
Общий поток : 3704 Кбит/сек
Дата кодирования : UTC 2018-02-08 16:41:26
Программа кодирования : mkvmerge v4.0.0 ('The Stars were mine') сборка от Jun 6 2010 16:18:42
Библиотека кодирования : libebml v1.0.0 + libmatroska v1.0.0
Обложка : Yes
Attachments : cover.jpg

Видео
Идентификатор : 1
Формат : AVC
Формат/Информация : Advanced Video Codec
Профиль формата :
Параметр CABAC формата : Да
Параметр ReFrames формата : 6 кадров
Идентификатор кодека : V_MPEG4/ISO/AVC
Продолжительность : 44 м. 39 с.
Битрейт : 3500 Кбит/сек
Ширина : 1280 пикселей
Высота : 720 пикселей
Соотношение сторон : 16:9
Режим частоты кадров : Постоянный
Частота кадров : 25,000 кадров/сек
Цветовое пространство : YUV
Субдискретизация насыщенности : 4:2:0
Битовая глубина : 8 бит
Тип развёртки : Прогрессивная
Бит/(Пиксели*Кадры) : 0.152
Размер потока : 1,07 Гбайт (93%)
Библиотека кодирования : x264 core 146 r2538 121396c
Настройки программы : cabac=1 / ref=6 / deblock=1:-1:-1 / analyse=0x3:0x133 / me=umh / subme=10 / psy=1 / psy_rd=1.00:0.15 / mixed_ref=1 / me_range=24 / chroma_me=1 / trellis=2 / 8x8dct=1 / cqm=0 / deadzone=21,11 / fast_pskip=0 / chroma_qp_offset=-3 / threads=12 / lookahead_threads=1 / sliced_threads=0 / nr=0 / decimate=1 / interlaced=0 / bluray_compat=0 / constrained_intra=0 / bframes=3 / b_pyramid=2 / b_adapt=2 / b_bias=0 / direct=1 / weightb=1 / open_gop=0 / weightp=2 / keyint=250 / keyint_min=25 / scenecut=40 / intra_refresh=0 / rc_lookahead=50 / rc=abr / mbtree=1 / bitrate=3500 / ratetol=1.0 / qcomp=0.69 / qpmin=0 / qpmax=69 / qpstep=4 / ip_ratio=1.40 / aq=1:1.00
Default : Нет
Forced : Нет

Аудио
Идентификатор : 2
Формат : AC-3
Формат/Информация : Audio Coding 3
Расширение режима : CM (complete main)
Параметр Endianness формата : Big
Идентификатор кодека : A_AC3
Продолжительность : 44 м. 39 с.
Вид битрейта : Постоянный
Битрейт : 192 Кбит/сек
Каналы : 2 канала
Расположение каналов : Front: L R
Частота : 48,0 КГц
Частота кадров : 31,250 кадров/сек (1536 spf)
Битовая глубина : 16 бит
Метод сжатия : С потерями
Размер потока : 61,3 Мбайт (5%)
Default : Да
Forced : Нет










   Похожие торренты   Торрент   Размер 
В этой теме нет новых непрочитанных сообщений. Склифосовский / Склиф (4 сезон 1 - 24 серии из 24 ) (Юлия Краснова) [2014-2015, драма, мелодрама, HDTVRip]

0 | 0

15.12 ГБ

В этой теме нет новых непрочитанных сообщений. Склифосовский (6 сезон 1-16 серии из 16) (Юлия Краснова) [2017, драма, мелодрама, WEB-DLRip-AVC]

0 | 0

12.95 ГБ

В этой теме нет новых непрочитанных сообщений. Склифосовский (6 сезон 1-16 серии из 16) (Юлия Краснова) [2017, драма, мелодрама, WEB-DL 1080p]

0 | 4

19.52 ГБ

В этой теме нет новых непрочитанных сообщений. Склифосовский (6 сезон 1-16 серии из 16) (Юлия Краснова) [2017, драма, мелодрама, SATRip]

2 | 0

11.22 ГБ

В этой теме нет новых непрочитанных сообщений. Склифосовский / Склиф (3 сезон 1 - 24 серии из 24 ) (Андрей Селиванов) [2013, драма, мелодрама, HDTVRip 720p]

3 | 0

37.33 ГБ

В этой теме нет новых непрочитанных сообщений. Склифосовский / Склиф (1 сезон 1 - 24 серии из 24 ) (Андрей Селиванов) [2012, драма, мелодрама, HDTVRip 720p]

2 | 3

28.81 ГБ

В этой теме нет новых непрочитанных сообщений. Склифосовский / Склиф (2 сезон 1 - 24 серии из 24 ) (Андрей Селиванов) [2012-2013, драма, мелодрама, HDTVRip 720p]

0 | 6

30.33 ГБ




Вы не можете начинать темы
Вы не можете отвечать на сообщения
Вы не можете редактировать свои сообщения
Вы не можете удалять свои сообщения
Вы не можете добавлять вложения

Перейти:  
 Вход
ppkBB3cker v.2 © 2008-2014 @ PPK
[ Time : 0.026s | 15 Queries | GZIP : Off ]

cron