img image001 image001 image001 image001 image001 image001 image001 image001 image001 image001 image001 image001 image001 image001 image001 image001

Planets Sun Sun Sun
Статистика раздачи
Автор: PriZraK | Размер: 19.52 ГБ | Добавлен: 12 фев 2018
Раздают: 0    Качают: 4
Скачать торрент
Скачать торрент
Описание торрента

СообщениеДобавлено: 12 фев 2018 

Склифосовский (6 сезон 1-16 серии из 16)

Перевод: Не требуется
Субтитры: отсутствуют
Формат: WEB-DL, MKV, H.264, AC3
Страна: Россия
Режиссер: Юлия Краснова
Жанр: драма, мелодрама
Всего серий: 16
Продолжительность: 16 x ~ 00:52:00
Год выпуска: 2017

В ролях: Максим Аверин, Мария Куликова, Константин Юшкевич, Евгения Дмитриева, Александр Сирин, Иван Шабалтас, Владимир Жеребцов, Андрей Барило, Анна Якунина, Екатерина Травова, Елена Яковлева, Владимир Довжик, Олег Чернов, Мария Рыщенкова, Дмитрий Жульков, Елена Папанова, Ирина Основина, Валерий Ярёменко, Леонид Громов, Александр Сетейкин, Светлана Закирова, Сергей Климов, Инна Стерлигова, Елена Захарова (II), Татьяна Аугшкап, Константин Лукич, Сергей Терещук, Олег Билик, Валентин Валл, Мария Чувилина, Константин Новиков (II), Шухрат Иргашев, Анна Масальская, Иван Агапов, Михаил Руденко, Андрей Ильин, Юрий Назаров, Анна Телицына, Олег Дуленин, Александр Стефанцов, Ольга Цинк, Михаил Панюков, Егор Ковалёв

Описание: В новом сезоне зрителям предстоит узнать каково же талантливому хирургу Брагину (Максим Аверин) за плечами у которого блестящая практика и сотни спасенных жизней, трястись в карете скорой помощи, куда его сослали в прошлом сезоне? Тем временем, в институте появляется новый врач – челюстно-лицевой хирург Кривицкий (Андрей Ильин). В Склифе он встретится с актрисой Еленой Яковлевой, дуэт с которой в сериале «Каменская» когда-то сделал из театрального актера звезду экрана. Герой Ильина – хирург, проживший много лет в эмиграции. Зачем спустя 30 лет успешный израильский врач возвращается на Родину? И что за скелеты скрывает он в своем шкафу?.. В семейной жизни Брагина и нейрохирурга Марины (Мария Куликова) не все гладко. Сможет ли Марина устоять перед славой, которая на нее обрушилась после проведения уникальной операции, и сохранить семью? У Нарочинской также появляется тайна, которой она никак не решается поделиться с любимым мужем. В последней серии прошлого сезона Брагин доставил Нину (Анна Якунина) в Склиф после попытки самоубийства. Он уверен, что до такого состояния Нину из ревности довела властная Павлова (Елена Яковлева). И пока врачи Склифа борются за жизнь Нины, у ее постели дежурят сразу двое любящих ее мужчин – санитар Аскеров (Олег Чернов) и внезапно вернувшийся из-за границы Неклюдов (Андрей Барило). Костя (Владимир Жеребцов) вместе с Сашей (Мария Рыщенкова) доставляют в Склиф молодого человека Кирилла, которого Костя, защищая Сашу, избил до полусмерти. Кирилл в коме, в тяжелом состоянии. Косте грозит 12 лет тюрьмы, но несмотря на это, он готов сделать признание. Однако Саша всеми силами отговаривает его, ведь если Кирилл умрет, дело можно будет замять.



Видео: 1920x1080p (16:9), 25,000 fps, MPEG4 AVC (x264), High@L4 ~2925 Kbps avg, 0.056 bit/pixel
Аудио: 44 kHz, AC3, 2 ch ~ 256 Kbps

Релиз от:

Релиз предоставлен сайтом tfile.me!!


Общее
Уникальный идентификатор : 230582019613741771387802036177944637016 (0xAD787B4B85E129058849BB546072EE58)
Полное имя : F:\TREKER\ТЕМР\sklifosovsky_s06_[tfile.ru]\sklifosovsky_s06_e01_[tfile.ru].mkv
Формат : Matroska
Версия формата : Version 2
Размер файла : 1,19 Гбайт
Продолжительность : 52 м. 38 с.
Общий поток : 3245 Кбит/сек
Название фильма : sklifosovsky_s06_[tfile.ru]
Дата кодирования : UTC 2018-01-23 08:13:36
Программа кодирования : mkvmerge v4.0.0 ('The Stars were mine') сборка от Jun 6 2010 16:18:42
Библиотека кодирования : libebml v1.0.0 + libmatroska v1.0.0
Обложка : Yes
Attachments : cover.jpg

Видео
Идентификатор : 1
Формат : AVC
Формат/Информация : Advanced Video Codec
Профиль формата : High@L4
Параметр CABAC формата : Да
Параметр ReFrames формата : 2 кадра
Идентификатор кодека : V_MPEG4/ISO/AVC
Продолжительность : 52 м. 38 с.
Битрейт : 2925 Кбит/сек
Ширина : 1920 пикселей
Высота : 1080 пикселей
Соотношение сторон : 16:9
Режим частоты кадров : Постоянный
Частота кадров : 25,000 кадров/сек
Цветовое пространство : YUV
Субдискретизация насыщенности : 4:2:0
Битовая глубина : 8 бит
Тип развёртки : Прогрессивная
Бит/(Пиксели*Кадры) : 0.056
Размер потока : 1,08 Гбайт (90%)
Default : Нет
Forced : Нет
Цветовой диапазон : Limited
Основные цвета : BT.709
Характеристики трансфера : BT.709
Коэффициенты матрицы : BT.709

Аудио
Идентификатор : 2
Формат : AC-3
Формат/Информация : Audio Coding 3
Расширение режима : CM (complete main)
Параметр Endianness формата : Big
Идентификатор кодека : A_AC3
Продолжительность : 52 м. 38 с.
Вид битрейта : Постоянный
Битрейт : 256 Кбит/сек
Каналы : 2 канала
Расположение каналов : Front: L R
Частота : 44,1 КГц
Частота кадров : 28,711 кадров/сек (1536 spf)
Битовая глубина : 16 бит
Метод сжатия : С потерями
Размер потока : 96,4 Мбайт (8%)
Default : Нет
Forced : Нет










   Похожие торренты   Торрент   Размер 
В этой теме нет новых непрочитанных сообщений. Склифосовский (6 сезон 1-16 серии из 16) (Юлия Краснова) [2017, драма, мелодрама, SATRip]

2 | 0

11.22 ГБ

В этой теме нет новых непрочитанных сообщений. Склифосовский (6 сезон 1-16 серии из 16) (Юлия Краснова) [2017, драма, мелодрама, WEB-DLRip-AVC]

0 | 0

12.95 ГБ

В этой теме нет новых непрочитанных сообщений. Склифосовский / Склиф (4 сезон 1 - 24 серии из 24 ) (Юлия Краснова) [2014-2015, драма, мелодрама, HDTVRip]

0 | 0

15.12 ГБ

В этой теме нет новых непрочитанных сообщений. Склифосовский / Склиф (4 сезон 1 - 24 серии из 24 ) (Юлия Краснова) [2014-2015, драма, мелодрама, HDTVRip 720p]

8 | 0

28.58 ГБ

В этой теме нет новых непрочитанных сообщений. Склифосовский / Склиф (3 сезон 1 - 24 серии из 24 ) (Андрей Селиванов) [2013, драма, мелодрама, HDTVRip]

0 | 4

15.26 ГБ

В этой теме нет новых непрочитанных сообщений. Склифосовский / Склиф (1 сезон 1 - 24 серии из 24 ) (Андрей Селиванов) [2012, драма, мелодрама, HDTVRip]

2 | 7

15.61 ГБ

В этой теме нет новых непрочитанных сообщений. Склифосовский / Склиф (1 сезон 1 - 24 серии из 24 ) (Андрей Селиванов) [2012, драма, мелодрама, HDTVRip 720p]

2 | 3

28.81 ГБ




Вы не можете начинать темы
Вы не можете отвечать на сообщения
Вы не можете редактировать свои сообщения
Вы не можете удалять свои сообщения
Вы не можете добавлять вложения

Перейти:  
 Вход
ppkBB3cker v.2 © 2008-2014 @ PPK
[ Time : 0.029s | 17 Queries | GZIP : Off ]

cron