img image001 image001 image001 image001 image001 image001 image001 image001 image001 image001 image001 image001 image001 image001 image001 image001

Planets Sun Sun Sun
Статистика раздачи
Автор: Nickolas3434 | Размер: 5.32 ГБ | Добавлен: 27 ноя 2017
Раздают: 9    Качают: 5
Скачать торрент
Скачать торрент
Описание торрента

СообщениеДобавлено: 27 ноя 2017 

Информация о фильме
Название: Кремниевая долина
Оригинальное название: Silicon valley
Год выхода: 2015
Жанр: Комедия
Режиссер: Майк Джадж
В ролях: Аманда Крю, Эли Мави, Джэйк Бродер, Энди Бакли, Порша Коулмэн, Джимми Оуянг, Остин Абрамс, Victor Achkeev, Джилл Е. Александр, Бобак Бахтиари и др.
О фильме:
Жизнь в Силиконовой долине – жестокая борьба за место под калифорнийским солнцем. Каждый здесь мечтает стать новым Джобсом. Шестеро молодых айтишников пытаются придумать прорывный стартап, который принесет им славу и деньги. Но великие изобретатели беспомощны в повседневной жизни, а толковые прагматики не могут справиться со звездной болезнью. Создатель шоу Майк Джадж, автор «Бивиса и Баттхеда», знает, как превратить эти гиковские сложности в комедию.

Страна: США
Студия: 3 Arts Entertainment / Judgemental Films Inc.
Продолжительность: 10 x ~ 00:28:00
Перевод:
  • Профессиональный (двухголосый, закадровый) Кубик в КубеПрофессиональный (многоголосый, закадровый) Amedia
Файл
Кодек: x265 (H.265/HEVC)
Качество: BDRip 1080p
Видео: 1920x1080, 25 fps, x265@L4.0, ~2000 kbps
Звук:
Аудио #1: AC-3, 6 ch, 384 kbps (Rus) - Кубик в Кубе
Аудио #2: AC-3, 6 ch, 384 kbps (Rus) - Amedia

General
Complete name : Silicon_Valley_S02E01_Sand.Hill.Shuffle_1080p_HEVC_Amedia_KvK.mkv
Format : Matroska
Format version : Version 4 / Version 2
File size : 569 MiB
Duration : 29 min 32 s
Overall bit rate : 2 693 kb/s
Movie name : Silicon Valley S02E01 1080p Blu-ray Remux AVC DTS-HD MA 5.1 - DTHD
Writing application : Lavf57.83.100
Writing library : Lavf57.83.100
ErrorDetectionType : Per level 1
Video
ID : 1
Format : HEVC
Format/Info : High Efficiency Video Coding
Format profile : Main@L4@Main
Codec ID : V_MPEGH/ISO/HEVC
Duration : 29 min 32 s
Bit rate : 1 871 kb/s
Width : 1 920 pixels
Height : 1 080 pixels
Display aspect ratio : 16:9
Frame rate mode : Constant
Frame rate : 25.000 FPS
Color space : YUV
Chroma subsampling : 4:2:0
Bit depth : 8 bits
Bits/(Pixel*Frame) : 0.036
Stream size : 395 MiB (69%)
Writing library : x265 2.0+1-6a9b6a828f79:[Linux][GCC 5.4.0][64 bit] 8bit
Encoding settings : wpp / ctu=64 / min-cu-size=8 / max-tu-size=32 / tu-intra-depth=1 / tu-inter-depth=1 / me=1 / subme=2 / merange=57 / no-rect / no-amp / max-merge=2 / temporal-mvp / no-early-skip / rskip / rdpenalty=0 / no-tskip / no-tskip-fast / strong-intra-smoothing / no-lossless / no-cu-lossless / no-constrained-intra / no-fast-intra / open-gop / no-temporal-layers / interlace=0 / keyint=250 / min-keyint=25 / scenecut=40 / rc-lookahead=20 / lookahead-slices=6 / bframes=4 / bframe-bias=0 / b-adapt=2 / ref=3 / limit-refs=3 / no-limit-modes / weightp / no-weightb / aq-mode=1 / qg-size=32 / aq-strength=1.00 / cbqpoffs=0 / crqpoffs=0 / rd=3 / psy-rd=2.00 / rdoq-level=0 / psy-rdoq=0.00 / no-rd-refine / signhide / deblock=0:0 / sao / no-sao-non-deblock / b-pyramid / cutree / no-intra-refresh / rc=abr / bitrate=2021 / qcomp=0.60 / qpmin=0 / qpmax=51 / qpstep=4 / ipratio=1.40 / pbratio=1.30
Language : English
Default : Yes
Forced : No
Color range : Limited
Statistics Tags Issue : mkvmerge v9.1.0 ('Little Earthquakes') 64bit 2016-04-27 21:15:08 / Lavf57.83.100
FromStats_BitRate : 24830851
FromStats_Duration : 00:29:32.551000000
FromStats_FrameCount : 42495
FromStats_StreamSize : 5501262716
Audio #1
ID : 2
Format : AC-3
Format/Info : Audio Coding 3
Codec ID : A_AC3
Duration : 29 min 32 s
Bit rate mode : Constant
Bit rate : 384 kb/s
Channel(s) : 6 channels
Channel positions : Front: L C R, Side: L R, LFE
Sampling rate : 48.0 kHz
Frame rate : 31.250 FPS (1536 SPF)
Bit depth : 16 bits
Compression mode : Lossy
Delay relative to video : -105 ms
Stream size : 81.1 MiB (14%)
Title : Кубик в кубе
Language : Russian
Service kind : Complete Main
Default : Yes
Forced : No
Audio #2
ID : 3
Format : AC-3
Format/Info : Audio Coding 3
Codec ID : A_AC3
Duration : 29 min 32 s
Bit rate mode : Constant
Bit rate : 384 kb/s
Channel(s) : 6 channels
Channel positions : Front: L C R, Side: L R, LFE
Sampling rate : 48.0 kHz
Frame rate : 31.250 FPS (1536 SPF)
Bit depth : 16 bits
Compression mode : Lossy
Delay relative to video : -105 ms
Stream size : 81.1 MiB (14%)
Title : Amedia
Language : Russian
Service kind : Complete Main
Default : Yes
Forced : No
Menu
00:00:00.000 : :Chapter 01
00:04:32.146 : :Chapter 02
00:14:26.991 : :Chapter 03
00:22:13.165 : :Chapter 04
00:28:21.700 : :Chapter 05



   Похожие торренты   Торрент   Размер 
В этой теме нет новых непрочитанных сообщений. Кремниевая долина / Silicon Valley [S01] (2014) BDRip-HEVC 1080p | Кубик в кубе, Amedia

10 | 3

6.28 ГБ

В этой теме нет новых непрочитанных сообщений. Кремниевая долина / Silicon valley [S04] (2017) BDRip-HEVC 1080p | Кубик в кубе, Amedia

16 | 8

4.13 ГБ

В этой теме нет новых непрочитанных сообщений. Кремниевая долина / Silicon valley [S03] (2016) BDRip HEVC 1080p | Кубик в кубе, Amedia

2 | 7

4.14 ГБ

В этой теме нет новых непрочитанных сообщений. Кремниевая долина / Silicon Valley [S01-04] (2014-2017) BDRip 1080p | Кубик в Кубе, Amedia

9 | 23

77.77 ГБ

В этой теме нет новых непрочитанных сообщений. Кремниевая долина / Силиконовая долина / Silicon Valley [S01] (2014) BDRip 720p | Кубик в кубе, Amedia

167 | 58

15.19 ГБ

В этой теме нет новых непрочитанных сообщений. Кремниевая долина / Silicon Valley [S01-02] (2014-2015) HDTVRip | Кубик в Кубе

173 | 227

5.35 ГБ

В этой теме нет новых непрочитанных сообщений. Кремниевая долина / Силиконовая долина / Silicon Valley [02x01-04 из 10] HDTVRip | Кубик в Кубе

56 | 40

1.17 ГБ




Вы не можете начинать темы
Вы не можете отвечать на сообщения
Вы не можете редактировать свои сообщения
Вы не можете удалять свои сообщения
Вы не можете добавлять вложения

Перейти:  
 Вход
ppkBB3cker v.2 © 2008-2014 @ PPK
[ Time : 0.040s | 15 Queries | GZIP : Off ]

cron