img image001 image001 image001 image001 image001 image001 image001 image001 image001 image001 image001 image001 image001 image001 image001 image001

Planets Sun Sun Sun
Статистика раздачи
Автор: Nickolas3434 | Размер: 22.36 ГБ | Добавлен: 17 ноя 2017
Раздают: 2    Качают: 4
Скачать торрент
Скачать торрент
Описание торрента

СообщениеДобавлено: 17 ноя 2017 

Название: Плоть и кости
Оригинальное название: Flesh and Bone
Год выхода: 2015
Страна: США
Студия: Starz Originals
Продолжительность: 8 x ~ 59:00
Жанр: драма
Режиссер: Алик Сахаров, Адам Дэвидсон, Джошуа Марстон, ...
В ролях: Сара Хэй, Бен Дэниелс, Эмили Тайра, Ирина Дворовенко, Дэймон Херриман, Джош Хелман, Рэйчел Дайан Уэйнер, Саша Радетски, Тина Бенко, Надежда Востриков, ...
Перевод:
- Профессиональный (многоголосый, закадровый) SDI-Media по заказу Amedia
- Профессиональный (многоголосый, закадровый) NewStudio
О фильме: Главная героиня Клэр, молодая балерина с тёмным прошлым, получает шанс продолжить карьеру в престижной нью-йоркской балетной труппе. Здесь хорошие новости заканчиваются, и начинается мрачная, жесткая драма, выворачивающая наизнанку гламурный и порочный мир современного балета…

Кодек: x264
Качество: BDRip 720p
Видео: 1280x720, ~5000 kbps, 23,976 fps
Аудио #1: AC-3, 6 ch, 640 kbps (Rus) - SDI-Media
Аудио #2: AC-3, 6 ch, 640 kbps (Rus) - NewStudio
Общее
Уникальный идентификатор : 195319816075097402866444311921368127848 (0x92F13A6EAA67C57AAAB99CFE73265968)
Полное имя : Flesh and Bone E01 S01 2015 BDRip 720p SDI-Media NewStudio.mkv
Формат : Matroska
Версия формата : Version 2
Размер файла : 2,93 Гбайт
Продолжительность : 1 ч. 4 м.
Общий поток : 6549 Кбит/сек
Дата кодирования : UTC 2017-11-16 04:12:34
Программа кодирования : mkvmerge v4.0.0 ('The Stars were mine') сборка от Jun 6 2010 16:18:42
Библиотека кодирования : libebml v1.0.0 + libmatroska v1.0.0
Видео
Идентификатор : 1
Формат : AVC
Формат/Информация : Advanced Video Codec
Профиль формата : High@L4.1
Параметр CABAC формата : Да
Параметр ReFrames формата : 5 кадров
Идентификатор кодека : V_MPEG4/ISO/AVC
Продолжительность : 1 ч. 4 м.
Битрейт : 5268 Кбит/сек
Ширина : 1280 пикселей
Высота : 720 пикселей
Соотношение сторон : 16:9
Режим частоты кадров : Постоянный
Частота кадров : 23,976 кадра/сек
Цветовое пространство : YUV
Субдискретизация насыщенности : 4:2:0
Битовая глубина : 8 бит
Тип развёртки : Прогрессивная
Бит/(Пиксели*Кадры) : 0.238
Размер потока : 2,30 Гбайт (78%)
Библиотека кодирования : x264 core 148 r2638 7599210
Настройки программы : cabac=1 / ref=5 / deblock=1:0:0 / analyse=0x3:0x133 / me=umh / subme=7 / psy=1 / psy_rd=1.00:0.00 / mixed_ref=1 / me_range=16 / chroma_me=1 / trellis=1 / 8x8dct=1 / cqm=0 / deadzone=21,11 / fast_pskip=0 / chroma_qp_offset=-2 / threads=18 / lookahead_threads=3 / sliced_threads=0 / nr=0 / decimate=1 / interlaced=0 / bluray_compat=0 / constrained_intra=0 / bframes=3 / b_pyramid=2 / b_adapt=1 / b_bias=0 / direct=1 / weightb=1 / open_gop=0 / weightp=2 / keyint=250 / keyint_min=23 / scenecut=40 / intra_refresh=0 / rc_lookahead=40 / rc=2pass / mbtree=1 / bitrate=5268 / ratetol=1.0 / qcomp=0.60 / qpmin=0 / qpmax=69 / qpstep=4 / cplxblur=20.0 / qblur=0.5 / ip_ratio=1.40 / aq=1:1.00
Язык : English
Default : Нет
Forced : Нет
Аудио #1
Идентификатор : 2
Формат : AC-3
Формат/Информация : Audio Coding 3
Расширение режима : CM (complete main)
Параметр Endianness формата : Big
Идентификатор кодека : A_AC3
Продолжительность : 1 ч. 4 м.
Вид битрейта : Постоянный
Битрейт : 640 Кбит/сек
Каналы : 6 каналов
Расположение каналов : Front: L C R, Side: L R, LFE
Частота : 48,0 КГц
Частота кадров : 31,250 кадров/сек (1536 spf)
Метод сжатия : С потерями
Размер потока : 293 Мбайт (10%)
Заголовок : SDI-Media
Язык : Russian
Default : Нет
Forced : Нет
Аудио #2
Идентификатор : 3
Формат : AC-3
Формат/Информация : Audio Coding 3
Расширение режима : CM (complete main)
Параметр Endianness формата : Big
Идентификатор кодека : A_AC3
Продолжительность : 1 ч. 4 м.
Вид битрейта : Постоянный
Битрейт : 640 Кбит/сек
Каналы : 6 каналов
Расположение каналов : Front: L C R, Side: L R, LFE
Частота : 48,0 КГц
Частота кадров : 31,250 кадров/сек (1536 spf)
Метод сжатия : С потерями
Размер потока : 293 Мбайт (10%)
Заголовок : NewStudio
Язык : Russian
Default : Нет
Forced : Нет





   Похожие торренты   Торрент   Размер 
В этой теме нет новых непрочитанных сообщений. Плоть и кости / Flesh and Bone [01x01 из 08] (2015) WEBRip 720p | Amedia

88 | 6

1.66 ГБ

В этой теме нет новых непрочитанных сообщений. Плоть и кости / Flesh and Bone [S01] (2015) HDTVRip 720p | NewStudio

84 | 26

13.64 ГБ

В этой теме нет новых непрочитанных сообщений. Плоть и кости / Flesh and Bone [01x01 из 08] (2015) WEBRip от qqss44 | Amedia

122 | 7

799.78 МБ

В этой теме нет новых непрочитанных сообщений. Плоть и кости / Flesh and Bone [01x01 из 08] (2015) WEBRip | NewStudio

55 | 1

700 МБ

В этой теме нет новых непрочитанных сообщений. Плоть и кости / Flesh and Bone [01x01-04 из 08] (2015) HDTVRip | NewStudio

12 | 16

3.42 ГБ

В этой теме нет новых непрочитанных сообщений. Плоть и кости / Flesh and Bone [01x01-04 из 08] (2015) HDTVRip | NewStudio

152 | 21

5.44 ГБ

В этой теме нет новых непрочитанных сообщений. Плоть от плоти / Плоть и кости / Flesh and Bone (1993) DVDRip от NovaLan

27 | 7

2.05 ГБ




Вы не можете начинать темы
Вы не можете отвечать на сообщения
Вы не можете редактировать свои сообщения
Вы не можете удалять свои сообщения
Вы не можете добавлять вложения

Перейти:  
 Вход
ppkBB3cker v.2 © 2008-2014 @ PPK
[ Time : 0.030s | 15 Queries | GZIP : Off ]

cron