img image001 image001 image001 image001 image001 image001 image001 image001 image001 image001 image001 image001 image001 image001 image001 image001

Planets Sun Sun Sun
Статистика раздачи
Автор: Nickolas3434 | Размер: 51.56 ГБ | Добавлен: 26 сен 2017
Раздают: 6    Качают: 14
Скачать торрент
Скачать торрент
Описание торрента

СообщениеДобавлено: 26 сен 2017 

Название: Любовь/Ненависть
Оригинальное название: Love/Hate
Год выхода: 2010 - 2014
Страна: Ирландия
Студия: Octagon Films
Продолжительность: 28 x ~ 50:00
Жанр: драма, криминал
Режиссер: Дэвид Кэффри, Энтони Бирн
В ролях: Том Вон-Лолор, Киллиан Скотт, Аойбинн МакГиннити, Чарли Мерфи, Питер Кунан, Марк Данн, Роберт Шиэн, Лоуренс Кинлан, Сьюзэн Лунейн, Йен Ллойд Андерсон, ...
Перевод: Профессиональный (многоголосый, закадровый) AlexFilm
О фильме: Когда Даррен Трейси возвращается в Дублин, проведя год в бегах в Испании, погибает один из членов его банды. Это убийство влечет за собой цепь событий, которые напрямую связаны с боссом преступного мира по имени Джон Бой. Преступления влекут за собой всё новое количество жертв, которых становится тем больше, чем сильнее события выходят из-под контроля…

Кодек: x264
Качество: WEB-DLRip 720p
Видео: 1280x720, 5000 kbps, 23,976 fps
Аудио : AC-3, 2 ch, 192 kbps (Rus) - AlexFilm
Внимание! В сериале присутствуют сцены с обнаженной натурой и ненормативная лексика!
Общее
Уникальный идентификатор : 182832967669872764988288780293661889299 (0x898C594615B5423A85487A5281499313)
Полное имя : LoveHate E01 S01 2010 WEB-DLRip 720p AlexFilm.mkv
Формат : Matroska
Версия формата : Version 2
Размер файла : 1,86 Гбайт
Продолжительность : 51 м.
Общий поток : 5192 Кбит/сек
Дата кодирования : UTC 2017-05-05 21:03:00
Программа кодирования : mkvmerge v4.0.0 ('The Stars were mine') сборка от Jun 6 2010 16:18:42
Библиотека кодирования : libebml v1.0.0 + libmatroska v1.0.0
Видео
Идентификатор : 1
Формат : AVC
Формат/Информация : Advanced Video Codec
Профиль формата : High@L4.1
Параметр CABAC формата : Да
Параметр ReFrames формата : 9 кадров
Идентификатор кодека : V_MPEG4/ISO/AVC
Продолжительность : 51 м.
Битрейт : 5000 Кбит/сек
Ширина : 1280 пикселей
Высота : 720 пикселей
Соотношение сторон : 16:9
Режим частоты кадров : Постоянный
Частота кадров : 25,000 кадров/сек
Цветовое пространство : YUV
Субдискретизация насыщенности : 4:2:0
Битовая глубина : 8 бит
Тип развёртки : Прогрессивная
Бит/(Пиксели*Кадры) : 0.217
Размер потока : 1,75 Гбайт (94%)
Библиотека кодирования : x264 core 146 r2538 121396c
Настройки программы : cabac=1 / ref=9 / deblock=1:-3:-3 / analyse=0x3:0x133 / me=umh / subme=11 / psy=1 / psy_rd=1.00:0.00 / mixed_ref=1 / me_range=32 / chroma_me=1 / trellis=2 / 8x8dct=1 / cqm=0 / deadzone=21,11 / fast_pskip=0 / chroma_qp_offset=-2 / threads=12 / lookahead_threads=2 / sliced_threads=0 / nr=0 / decimate=0 / interlaced=0 / bluray_compat=0 / constrained_intra=0 / bframes=10 / b_pyramid=2 / b_adapt=2 / b_bias=0 / direct=3 / weightb=1 / open_gop=0 / weightp=2 / keyint=250 / keyint_min=25 / scenecut=40 / intra_refresh=0 / rc=2pass / mbtree=0 / bitrate=5000 / ratetol=1.0 / qcomp=0.60 / qpmin=0 / qpmax=69 / qpstep=4 / cplxblur=20.0 / qblur=0.5 / ip_ratio=1.40 / pb_ratio=1.30 / aq=3:0.80
Язык : English
Default : Нет
Forced : Нет
Аудио
Идентификатор : 2
Формат : AC-3
Формат/Информация : Audio Coding 3
Расширение режима : CM (complete main)
Параметр Endianness формата : Big
Идентификатор кодека : A_AC3
Продолжительность : 51 м.
Вид битрейта : Постоянный
Битрейт : 192 Кбит/сек
Каналы : 2 канала
Расположение каналов : Front: L R
Частота : 48,0 КГц
Частота кадров : 31,250 кадров/сек (1536 spf)
Метод сжатия : С потерями
Размер потока : 70,3 Мбайт (4%)
Заголовок : AlexFilm
Язык : Russian
Default : Нет
Forced : Нет





   Похожие торренты   Торрент   Размер 
В этой теме нет новых непрочитанных сообщений. Любовь/Ненависть / Love/Hate [S01-03] (2010-2012) WEB-DLRip от Generalfilm | AlexFilm

28 | 17

9.91 ГБ

В этой теме нет новых непрочитанных сообщений. Любовь/Ненависть / Love/Hate [04x01 из 6] (2013) WEB-DLRip | AlexFilm

5 | 1

603.38 МБ

В этой теме нет новых непрочитанных сообщений. Любовь/Ненависть / Love/Hate [04x01 из 6] (2013) WEB-DL 720p | AlexFilm

3 | 1

1.56 ГБ

В этой теме нет новых непрочитанных сообщений. Девушки без имен / Любовь и Ненависть, Лулу и Аяно / Namae no nai onna-tachi / Love & Loathing & Lulu & Ayano (2010) DVDRip-AVC | Sub

191 | 54

1022.17 МБ

В этой теме нет новых непрочитанных сообщений. Неизвестная ненависть / Some Kind of Hate (2015) HDRip | P

156 | 13

1.37 ГБ

В этой теме нет новых непрочитанных сообщений. Неизвестная ненависть / Some Kind of Hate (2015) BDRip | L1

322 | 59

1.45 ГБ

В этой теме нет новых непрочитанных сообщений. Неизвестная ненависть / Some Kind of Hate (2015) HDRip | L1

267 | 33

736.77 МБ




Вы не можете начинать темы
Вы не можете отвечать на сообщения
Вы не можете редактировать свои сообщения
Вы не можете удалять свои сообщения
Вы не можете добавлять вложения

Перейти:  
 Вход
ppkBB3cker v.2 © 2008-2014 @ PPK
[ Time : 0.097s | 16 Queries | GZIP : Off ]

cron