img image001 image001 image001 image001 image001 image001 image001 image001 image001 image001 image001 image001 image001 image001 image001 image001

Planets Sun Sun Sun
Статистика раздачи
Автор: Nickolas3434 | Размер: 8.94 ГБ | Добавлен: 09 май 2017
Раздают: 41    Качают: 8
Скачать торрент
Скачать торрент
Описание торрента

СообщениеДобавлено: 09 май 2017 

Информация о фильме
Название: Чистосердечное признание / Сезон: 1 / Серии: 1-2 из 2
Год выпуска: 2017
Страна: Россия
Жанр: мелодрама

Перевод: Не требуется [Русский]
Продолжительность: 01:34:45

Режиссер: Дмитрий Булин
В ролях: Татьяна Казючиц (Антонина Туманова), Владимир Щербаков (заместитель мэра), Илья Алексеев, Павел Кузин, Александр Лучинин, Оксана Гуляева, Андрей Шибаршин, Татьяна Клюкина, Светлана Павлова, Анна Карышева, Елена Валюшкина, Владимир Довжик


Описание:
Заместитель мэра небольшого провинциального города Фёдор Дьячков на почве ревности убивает свою любовницу. За хорошее денежное вознаграждение он предлагает персональному водителю Андрею взять ответственность за преступление на себя. Маленькая дочь Андрея больна и для выздоровления требуется дорогостоящая операция, на которую денег у семьи с очень скромным достатком, нет. Ради спасения дочери Андрей соглашается объявить себя убийцей.

Рейтинг:


Качество: HDTV 1080i
Формат: MKV
Видео: AVC, 1920x1080 (16:9), 6999 kbps, 25 fps, 0,135 bpp
Аудио: AC3 / 2.0 / 48 kHz / 192 kbps /
Семпл


Релиз от:
General
Unique ID : 219920195067279469792903952251672053706 (0xA57316C283B5912FABD072113E53C7CA)
Complete name : E:CHistoserdechnoe priznanie.2017.HDTV 1080.by.R.G.ResidentCHistoserdechnoe priznanie..s01.e01.2017.HDTV 1080.by.White Smoke.R.G.Resident.mkv
Format : Matroska
Format version : Version 4 / Version 2
File size : 4.75 GiB
Duration : 1 h 34 min
Overall bit rate mode : Constant
Overall bit rate : 7 181 kb/s
Movie name : CHistoserdechnoe priznanie..s01.e01.2017.HDTV 1080.by.White Smoke.R.G.Resident.mkv
Encoded date : UTC 2017-05-08 22:13:50
Writing application : mkvmerge v6.8.0 ('Theme for Great Cities') 64bit built on Mar 2 2014 21:34:26
Writing library : libebml v1.3.0 + libmatroska v1.4.1
Video
ID : 1
Format : AVC
Format/Info : Advanced Video Codec
Format profile : High@L4.1
Format settings, CABAC : Yes
Format settings, ReFrames : 3 frames
Format settings, GOP : M=3, N=33
Codec ID : V_MPEG4/ISO/AVC
Duration : 1 h 34 min
Bit rate mode : Constant
Bit rate : 7 000 kb/s
Width : 1 920 pixels
Height : 1 080 pixels
Display aspect ratio : 16:9
Frame rate mode : Constant
Frame rate : 25.000 FPS
Standard : PAL
Color space : YUV
Chroma subsampling : 4:2:0
Bit depth : 8 bits
Scan type : Progressive
Bits/(Pixel*Frame) : 0.135
Stream size : 4.53 GiB (95%)
Default : Yes
Forced : No
Color range : Limited
Color primaries : BT.709
Transfer characteristics : BT.709
Matrix coefficients : BT.709
Audio
ID : 2
Format : AC-3
Format/Info : Audio Coding 3
Mode extension : CM (complete main)
Format settings, Endianness : Big
Codec ID : A_AC3
Duration : 1 h 34 min
Bit rate mode : Constant
Bit rate : 192 kb/s
Channel(s) : 2 channels
Channel positions : Front: L R
Sampling rate : 48.0 kHz
Frame rate : 31.250 FPS (1536 spf)
Compression mode : Lossy
Stream size : 130 MiB (3%)
Default : Yes
Forced : No




   Похожие торренты   Торрент   Размер 
В этой теме нет новых непрочитанных сообщений. Чистосердечное признание [01-02 из 02] (2017) HDTVRip-AVC от Files-x

7 | 2

2.73 ГБ

В этой теме нет новых непрочитанных сообщений. Чистосердечное признание [01-02 из 02] (2017) HDTVRip от Files-x

84 | 7

2.74 ГБ

В этой теме нет новых непрочитанных сообщений. Чистосердечное признание [01-02 из 02] (2017) HDTVRip 720p от MediaClub

88 | 14

4.6 ГБ

В этой теме нет новых непрочитанных сообщений. Чистосердечное признание (2013) SATRip

4 | 13

7 ГБ

В этой теме нет новых непрочитанных сообщений. Чистосердечное признание. Русский мат (2010) TVRip

0 | 1

204.07 МБ

В этой теме нет новых непрочитанных сообщений. Капитанша [01-06 из 16] (2017) HDTV 1080i от R.G.Resident

38 | 5

20.47 ГБ

В этой теме нет новых непрочитанных сообщений. Обмен [01-04 из 04] (2016) HDTV 1080i от R.G.Resident

7 | 0

7.36 ГБ




Вы не можете начинать темы
Вы не можете отвечать на сообщения
Вы не можете редактировать свои сообщения
Вы не можете удалять свои сообщения
Вы не можете добавлять вложения

Перейти:  
 Вход
ppkBB3cker v.2 © 2008-2014 @ PPK
[ Time : 2.324s | 18 Queries | GZIP : Off ]

cron